<?xml version="1.0" standalone="no"?>
<!DOCTYPE svg PUBLIC "-//W3C//DTD SVG 1.1//EN" "http://www.w3.org/Graphics/SVG/1.1/DTD/svg11.dtd" >
<svg xmlns="http://www.w3.org/2000/svg" xmlns:xlink="http://www.w3.org/1999/xlink" version="1.1">
<metadata>
Created by FontForge 20190801 at Fri Sep 12 13:08:44 2008
 By Jimmy Wärting
Spaced and kerned with iKern.
</metadata>
<defs>
<font id="MuseoSans-500" horiz-adv-x="389" >
  <font-face 
    font-family="Museo Sans 500"
    font-weight="400"
    font-stretch="normal"
    units-per-em="1000"
    panose-1="2 0 0 0 0 0 0 0 0 0"
    ascent="750"
    descent="-250"
    x-height="506"
    cap-height="706"
    bbox="-121 -210 1088 892"
    underline-thickness="50"
    underline-position="-100"
    stemh="84"
    stemv="99"
    unicode-range="U+0020-FB04"
  />
<missing-glyph horiz-adv-x="510" 
d="M5 0v700h500v-700h-500zM255 395l170 255h-340zM285 350l170 -255v510zM55 95l170 255l-170 255v-510zM85 50h340l-170 255z" />
    <glyph glyph-name="f_f" unicode="ff" horiz-adv-x="672" 
d="M439 0v428h-240v-428h-96v428h-63v78h63v17c0 167 126 188 190 188c22 0 37 -3 37 -3v-83s-10 2 -25 2c-37 0 -106 -12 -106 -106v-15h240v17c0 167 126 188 190 188c22 0 37 -3 37 -3v-83s-10 2 -25 2c-37 0 -106 -12 -106 -106v-15h120v-78h-120v-428h-96z" />
    <glyph glyph-name="fi" unicode="fi" horiz-adv-x="585" 
d="M412 0v428h-213v-428h-96v428h-63v78h63v17c0 167 126 188 190 188c22 0 37 -3 37 -3v-83s-10 2 -25 2c-37 0 -106 -12 -106 -106v-15h310v-506h-97zM411 607v99h98v-99h-98z" />
    <glyph glyph-name="fl" unicode="fl" horiz-adv-x="601" 
d="M103 0v421h-63v78h63v24c0 167 126 188 190 188c22 0 37 -3 37 -3v-83s-10 2 -25 2c-37 0 -106 -12 -106 -106v-22h120v-78h-120v-421h-96zM406 138v568h97v-551c0 -61 24 -72 54 -72c9 0 17 1 17 1v-86s-15 -2 -32 -2c-55 0 -136 15 -136 142z" />
    <glyph glyph-name="f_f_i" unicode="ffi" horiz-adv-x="921" 
d="M439 0v428h-240v-428h-96v428h-63v78h63v17c0 167 126 188 190 188c22 0 37 -3 37 -3v-83s-10 2 -25 2c-37 0 -106 -12 -106 -106v-15h240v17c0 167 126 188 190 188c22 0 37 -3 37 -3v-83s-10 2 -25 2c-37 0 -106 -12 -106 -106v-15h310v-506h-97v428h-213v-428h-96z
M747 607v99h98v-99h-98z" />
    <glyph glyph-name="f_f_l" unicode="ffl" horiz-adv-x="937" 
d="M439 0v428h-240v-428h-96v428h-63v78h63v17c0 167 126 188 190 188c22 0 37 -3 37 -3v-83s-10 2 -25 2c-37 0 -106 -12 -106 -106v-15h240v17c0 167 126 188 190 188c22 0 37 -3 37 -3v-83s-10 2 -25 2c-37 0 -106 -12 -106 -106v-15h120v-78h-120v-428h-96zM742 138v568
h97v-551c0 -61 24 -72 54 -72c9 0 17 1 17 1v-86s-15 -2 -32 -2c-55 0 -136 15 -136 142z" />
    <glyph glyph-name="f_j" unicode="fj" horiz-adv-x="584" 
d="M103 0v428h-63v78h63v17c0 167 126 188 190 188c22 0 37 -3 37 -3v-83s-10 2 -25 2c-37 0 -106 -12 -106 -106v-15h309v-523c0 -169 -130 -189 -193 -189c-21 0 -34 2 -34 2v83s9 -1 22 -1c37 0 109 12 109 111v439h-213v-428h-96zM411 607v99h98v-99h-98z" />
    <glyph glyph-name=".notdef" horiz-adv-x="510" 
d="M5 0v700h500v-700h-500zM255 395l170 255h-340zM285 350l170 -255v510zM55 95l170 255l-170 255v-510zM85 50h340l-170 255z" />
    <glyph glyph-name="space" unicode=" " horiz-adv-x="257" 
 />
    <glyph glyph-name="exclam" unicode="!" horiz-adv-x="318" 
d="M116 194l-7 512h100l-6 -512h-87zM110 0v97h99v-97h-99z" />
    <glyph glyph-name="quotedbl" unicode="&#x22;" horiz-adv-x="342" 
d="M203 530v188h76v-188h-76zM63 530v188h76v-188h-76z" />
    <glyph glyph-name="numbersign" unicode="#" horiz-adv-x="718" 
d="M141 0l33 191h-130l12 74h131l29 168h-129l12 73h130l35 200h81l-35 -200h155l35 200h81l-35 -200h131l-13 -73h-130l-30 -168h130l-13 -74h-129l-34 -191h-81l33 191h-155l-33 -191h-81zM268 265h155l30 168h-155z" />
    <glyph glyph-name="dollar" unicode="$" horiz-adv-x="566" 
d="M54 81l56 75s75 -76 180 -76c66 0 122 37 122 104c0 146 -346 123 -346 337c0 97 75 178 186 194v94h71v-93c112 -8 171 -69 171 -69l-45 -82s-65 61 -155 61c-76 0 -128 -47 -128 -103c0 -140 346 -111 346 -336c0 -100 -71 -183 -189 -197v-92h-71v92
c-128 13 -198 91 -198 91z" />
    <glyph glyph-name="percent" unicode="%" horiz-adv-x="761" 
d="M199 422c-84 0 -151 66 -151 148c0 81 67 148 151 148s152 -67 152 -148c0 -82 -68 -148 -152 -148zM63 0l540 706h94l-540 -706h-94zM199 496c42 0 74 32 74 74c0 41 -32 75 -74 75s-74 -34 -74 -75c0 -42 32 -74 74 -74zM410 136c0 81 67 148 152 148
c83 0 152 -67 152 -148c0 -82 -69 -148 -152 -148c-85 0 -152 66 -152 148zM488 136c0 -42 32 -74 74 -74c41 0 74 32 74 74c0 41 -33 75 -74 75c-42 0 -74 -34 -74 -75z" />
    <glyph glyph-name="ampersand" unicode="&#x26;" horiz-adv-x="684" 
d="M54 198c0 78 46 155 124 181v2s-93 32 -93 155c0 117 92 182 217 182c39 0 86 -11 86 -11l-25 -79s-29 6 -53 6c-70 0 -125 -39 -125 -108c0 -44 21 -111 130 -111h131v96h97v-96h94v-86h-94v-94c0 -157 -93 -247 -244 -247c-147 0 -245 91 -245 210zM155 203
c0 -68 56 -124 144 -124c90 0 147 49 147 160v90h-135c-100 0 -156 -47 -156 -126z" />
    <glyph glyph-name="quotesingle" unicode="'" horiz-adv-x="203" 
d="M63 530v188h77v-188h-77z" />
    <glyph glyph-name="parenleft" unicode="(" horiz-adv-x="302" 
d="M189 -95c-72 120 -116 274 -116 435c0 144 42 277 116 395h85c-73 -122 -113 -255 -113 -396c0 -149 38 -298 113 -434h-85z" />
    <glyph glyph-name="parenright" unicode=")" horiz-adv-x="302" 
d="M113 -95h-85c75 136 113 285 113 434c0 141 -40 274 -113 396h85c74 -118 116 -251 116 -395c0 -161 -44 -315 -116 -435z" />
    <glyph glyph-name="asterisk" unicode="*" horiz-adv-x="467" 
d="M155 329l-72 52l89 110v2l-136 37l26 84l133 -50l-7 142h91l-8 -142l134 50l27 -84l-137 -37v-2l88 -110l-71 -52l-77 118h-2z" />
    <glyph glyph-name="plus" unicode="+" horiz-adv-x="683" 
d="M77 246v78h224v246h82v-246h223v-78h-223v-246h-82v246h-224z" />
    <glyph glyph-name="comma" unicode="," horiz-adv-x="255" 
d="M27 -101l62 206h99l-84 -206h-77z" />
    <glyph glyph-name="hyphen" unicode="-" horiz-adv-x="472" 
d="M90 242v86h292v-86h-292z" />
    <glyph glyph-name="period" unicode="." horiz-adv-x="254" 
d="M76 0v103h102v-103h-102z" />
    <glyph glyph-name="slash" unicode="/" horiz-adv-x="404" 
d="M36 -42l254 786h86l-254 -786h-86z" />
    <glyph glyph-name="zero" unicode="0" horiz-adv-x="625" 
d="M312 -12c-188 0 -249 162 -249 366c0 203 61 364 249 364c189 0 250 -161 250 -364c0 -204 -61 -366 -250 -366zM312 79c116 0 149 121 149 275c0 153 -33 273 -149 273c-115 0 -148 -120 -148 -273c0 -154 33 -275 148 -275z" />
    <glyph glyph-name="one" unicode="1" horiz-adv-x="489" 
d="M56 0v86h156v456c0 22 1 44 1 44h-2s-8 -16 -34 -41l-66 -65l-60 62l169 164h88v-620h154v-86h-406z" />
    <glyph glyph-name="two" unicode="2" horiz-adv-x="572" 
d="M60 0c-3 19 -5 37 -5 54c0 252 346 288 346 454c0 70 -53 117 -127 117c-93 0 -143 -90 -143 -90l-73 49s64 134 223 134c130 0 223 -81 223 -203c0 -232 -337 -268 -339 -429h350v-86h-455z" />
    <glyph glyph-name="three" unicode="3" horiz-adv-x="567" 
d="M40 84l54 75s69 -77 171 -77c79 0 144 53 144 129c0 87 -77 130 -164 130h-49l-23 53l154 181c23 27 44 46 44 46v2s-21 -3 -60 -3h-239v86h422v-63l-192 -221c93 -10 207 -70 207 -207c0 -121 -95 -227 -240 -227c-144 0 -229 96 -229 96z" />
    <glyph glyph-name="four" unicode="4" horiz-adv-x="606" 
d="M31 189v62l326 455h113v-433h96v-84h-96v-189h-97v189h-342zM140 273h233v257c0 33 4 70 4 70h-2s-16 -33 -35 -58l-200 -267v-2z" />
    <glyph glyph-name="five" unicode="5" horiz-adv-x="563" 
d="M48 86l55 72s55 -76 155 -76c83 0 155 57 155 143c0 85 -70 145 -161 145c-69 0 -119 -35 -119 -35l-57 21l35 350h356v-86h-270l-17 -149c-1 -21 -5 -37 -5 -37h2s39 22 91 22c149 0 246 -103 246 -230c0 -136 -107 -238 -250 -238c-145 0 -216 98 -216 98z" />
    <glyph glyph-name="six" unicode="6" horiz-adv-x="599" 
d="M323 -12c-151 0 -264 132 -264 333c0 181 99 397 318 397c83 0 137 -29 137 -29l-32 -85s-45 23 -101 23c-130 0 -197 -120 -212 -237h2c30 40 94 67 156 67c134 0 223 -102 223 -233c0 -139 -95 -236 -227 -236zM322 79c81 0 130 63 130 145c0 86 -55 149 -145 149
c-80 0 -144 -48 -144 -99c0 -92 69 -195 159 -195z" />
    <glyph glyph-name="seven" unicode="7" horiz-adv-x="529" 
d="M86 0l275 556c20 40 41 65 41 65v2s-16 -3 -52 -3h-315v86h472v-68l-319 -638h-102z" />
    <glyph glyph-name="eight" unicode="8" horiz-adv-x="607" 
d="M57 204c0 108 94 175 113 188c-46 33 -79 76 -79 141c0 94 71 185 220 185c131 0 222 -73 222 -189c0 -94 -75 -174 -84 -184c54 -33 96 -77 96 -150c0 -110 -95 -207 -242 -207c-141 0 -246 88 -246 216zM443 198c0 76 -105 106 -200 152c-23 -16 -85 -64 -85 -140
c0 -81 70 -133 145 -133c74 0 140 48 140 121zM189 531c0 -78 94 -108 185 -147c11 11 62 65 62 139c0 65 -52 106 -126 106c-78 0 -121 -44 -121 -98z" />
    <glyph glyph-name="nine" unicode="9" horiz-adv-x="599" 
d="M222 -12c-84 0 -137 29 -137 29l32 86s45 -24 101 -24c130 0 197 120 212 237h-2c-29 -40 -94 -66 -156 -66c-134 0 -223 101 -223 232c0 139 95 236 227 236c150 0 264 -131 264 -333c0 -181 -99 -397 -318 -397zM292 333c80 0 144 49 144 99c0 92 -69 195 -159 195
c-82 0 -130 -63 -130 -145c0 -86 54 -149 145 -149z" />
    <glyph glyph-name="colon" unicode=":" horiz-adv-x="292" 
d="M95 403v103h102v-103h-102zM95 0v103h102v-103h-102z" />
    <glyph glyph-name="semicolon" unicode=";" horiz-adv-x="293" 
d="M47 -101l53 206h100l-75 -206h-78zM101 403v103h102v-103h-102z" />
    <glyph glyph-name="less" unicode="&#x3c;" horiz-adv-x="558" 
d="M33 252v66l466 208v-89l-358 -151v-2l358 -151v-89z" />
    <glyph glyph-name="equal" unicode="=" horiz-adv-x="669" 
d="M96 340v78h477v-78h-477zM96 151v78h477v-78h-477z" />
    <glyph glyph-name="greater" unicode="&#x3e;" horiz-adv-x="558" 
d="M59 44v89l357 151v2l-357 151v89l466 -208v-66z" />
    <glyph glyph-name="question" unicode="?" horiz-adv-x="489" 
d="M144 194v47c0 152 170 174 170 289c0 56 -48 99 -114 99c-63 0 -114 -42 -114 -42l-54 69s66 64 175 64c113 0 209 -72 209 -183c0 -165 -177 -182 -177 -302v-41h-95zM142 0v97h99v-97h-99z" />
    <glyph glyph-name="at" unicode="@" horiz-adv-x="821" 
d="M59 241c0 206 161 370 365 370c193 0 260 -97 260 -203v-283h72v-73h-273c-125 0 -207 88 -207 189c0 99 81 187 207 187h108c-2 57 -59 103 -162 103c-155 0 -273 -134 -273 -290c0 -158 114 -287 284 -287v-79c-224 0 -381 162 -381 366zM374 242
c0 -65 48 -117 116 -117h101v236h-99c-70 0 -118 -54 -118 -119z" />
    <glyph glyph-name="A" unicode="A" horiz-adv-x="628" 
d="M517 0l-71 203h-266l-70 -203h-102l254 706h104l254 -706h-103zM315 609h-2s-16 -64 -28 -100l-79 -224h214l-78 224c-12 36 -27 100 -27 100z" />
    <glyph glyph-name="B" unicode="B" horiz-adv-x="634" 
d="M96 0v706h247c119 0 205 -66 205 -180c0 -69 -34 -124 -88 -152v-2c74 -22 116 -92 116 -171c0 -133 -103 -201 -227 -201h-253zM195 409h148c64 0 104 45 104 107s-38 104 -106 104h-146v-211zM195 86h159c76 0 121 48 121 120s-48 121 -122 121h-158v-241z" />
    <glyph glyph-name="C" unicode="C" horiz-adv-x="722" 
d="M48 357c0 205 154 361 359 361c170 0 257 -93 257 -93l-49 -74s-82 77 -204 77c-158 0 -261 -120 -261 -270c0 -151 105 -279 262 -279c133 0 218 92 218 92l53 -71s-97 -112 -274 -112c-212 0 -361 162 -361 369z" />
    <glyph glyph-name="D" unicode="D" horiz-adv-x="740" 
d="M96 0v706h234c216 0 358 -129 358 -352c0 -224 -142 -354 -358 -354h-234zM195 86h128c159 0 263 94 263 268c0 173 -105 266 -263 266h-128v-534z" />
    <glyph glyph-name="E" unicode="E" horiz-adv-x="573" 
d="M96 0v706h410v-86h-311v-221h253v-86h-253v-227h328v-86h-427z" />
    <glyph glyph-name="F" unicode="F" horiz-adv-x="521" 
d="M96 0v706h389v-86h-290v-232h247v-86h-247v-302h-99z" />
    <glyph glyph-name="G" unicode="G" horiz-adv-x="760" 
d="M49 354c0 204 154 364 360 364c169 0 257 -85 257 -85l-50 -74s-79 69 -199 69c-166 0 -266 -121 -266 -272c0 -164 112 -277 260 -277c122 0 200 88 200 88v102h-115v86h205v-355h-87v44c0 15 1 30 1 30h-2s-77 -86 -217 -86c-190 0 -347 150 -347 366z" />
    <glyph glyph-name="H" unicode="H" horiz-adv-x="756" 
d="M96 0v706h99v-310h366v310h99v-706h-99v310h-366v-310h-99z" />
    <glyph glyph-name="I" unicode="I" horiz-adv-x="291" 
d="M96 0v706h99v-706h-99z" />
    <glyph glyph-name="J" unicode="J" horiz-adv-x="537" 
d="M30 203v35h98v-30c0 -96 56 -129 112 -129c55 0 110 32 110 125v416h-178v86h277v-503c0 -153 -107 -215 -210 -215s-209 63 -209 215z" />
    <glyph glyph-name="K" unicode="K" horiz-adv-x="623" 
d="M96 0v706h99v-297h105l178 297h109l-205 -335v-2l218 -369h-112l-188 324h-105v-324h-99z" />
    <glyph glyph-name="L" unicode="L" horiz-adv-x="529" 
d="M96 0v706h99v-620h316v-86h-415z" />
    <glyph glyph-name="M" unicode="M" horiz-adv-x="866" 
d="M74 0l57 706h104l162 -382c16 -39 35 -95 35 -95h2s19 56 35 95l162 382h104l57 -706h-98l-35 445c-3 43 -1 104 -1 104h-2s-21 -65 -38 -104l-141 -318h-88l-140 318c-16 38 -38 106 -38 106h-2s1 -63 -2 -106l-34 -445h-99z" />
    <glyph glyph-name="N" unicode="N" horiz-adv-x="757" 
d="M96 0v706h98l314 -459c26 -38 59 -102 59 -102h2s-7 63 -7 102v459h99v-706h-97l-315 458c-26 39 -59 103 -59 103h-2s7 -63 7 -103v-458h-99z" />
    <glyph glyph-name="O" unicode="O" horiz-adv-x="821" 
d="M48 358c0 203 159 360 363 360s362 -157 362 -360c0 -208 -158 -370 -362 -370s-363 162 -363 370zM150 358c0 -159 117 -279 261 -279s260 120 260 279c0 154 -116 270 -260 270s-261 -116 -261 -270z" />
    <glyph glyph-name="P" unicode="P" horiz-adv-x="607" 
d="M96 0v706h258c129 0 222 -87 222 -221s-93 -224 -222 -224h-159v-261h-99zM195 347h143c85 0 137 53 137 138s-52 135 -136 135h-144v-273z" />
    <glyph glyph-name="Q" unicode="Q" horiz-adv-x="833" 
d="M49 357c0 204 158 361 362 361c205 0 363 -157 363 -361c0 -89 -32 -171 -83 -233l84 -80l-58 -62l-82 82c-61 -49 -138 -76 -224 -76c-204 0 -362 163 -362 369zM151 357c0 -158 114 -278 260 -278c53 0 112 19 153 52l-83 81l58 62l81 -82c32 44 52 103 52 165
c0 156 -114 271 -261 271c-146 0 -260 -115 -260 -271z" />
    <glyph glyph-name="R" unicode="R" horiz-adv-x="641" 
d="M96 0v706h216c74 0 105 -6 132 -16c72 -27 119 -98 119 -191c0 -90 -50 -166 -127 -191v-2s8 -9 21 -32l150 -274h-112l-149 281h-151v-281h-99zM195 367h142c77 0 125 49 125 128c0 52 -20 89 -56 109c-19 10 -42 16 -97 16h-114v-253z" />
    <glyph glyph-name="S" unicode="S" horiz-adv-x="546" 
d="M42 81l56 75s75 -76 180 -76c66 0 122 37 122 104c0 153 -342 120 -342 337c0 110 95 197 228 197c131 0 200 -71 200 -71l-45 -82s-65 61 -155 61c-75 0 -128 -47 -128 -103c0 -146 342 -107 342 -336c0 -109 -84 -199 -224 -199c-150 0 -234 93 -234 93z" />
    <glyph glyph-name="T" unicode="T" horiz-adv-x="593" 
d="M247 0v620h-242v86h583v-86h-242v-620h-99z" />
    <glyph glyph-name="U" unicode="U" horiz-adv-x="728" 
d="M86 250v456h99v-456c0 -108 70 -171 178 -171c109 0 180 63 180 173v454h99v-456c0 -157 -113 -262 -278 -262s-278 105 -278 262z" />
    <glyph glyph-name="V" unicode="V" horiz-adv-x="632" 
d="M267 0l-261 706h107l175 -499c13 -38 27 -97 27 -97h2s14 59 27 97l177 499h105l-260 -706h-99z" />
    <glyph glyph-name="W" unicode="W" horiz-adv-x="948" 
d="M428 706h88l138 -518c10 -39 15 -75 15 -75h2s3 37 13 75l130 518h102l-185 -706h-115l-122 458c-12 45 -21 100 -21 100h-2s-9 -55 -21 -100l-122 -458h-115l-180 706h102l125 -518c9 -38 13 -75 13 -75h2s5 36 15 75z" />
    <glyph glyph-name="X" unicode="X" horiz-adv-x="612" 
d="M22 0l223 364l-209 342h114l111 -191c22 -38 45 -84 45 -84h2s20 45 43 84l111 191h114l-209 -342l223 -364h-112l-128 217c-23 40 -45 81 -45 81h-2s-19 -42 -42 -81l-128 -217h-111z" />
    <glyph glyph-name="Y" unicode="Y" horiz-adv-x="588" 
d="M245 0v299l-237 407h112l131 -232c22 -39 43 -89 43 -89h2s21 49 43 89l129 232h112l-236 -407v-299h-99z" />
    <glyph glyph-name="Z" unicode="Z" horiz-adv-x="607" 
d="M41 0v66l340 490c27 40 51 65 51 65v2s-19 -3 -53 -3h-320v86h496v-65l-340 -491c-27 -39 -51 -64 -51 -64v-2s19 2 53 2h342v-86h-518z" />
    <glyph glyph-name="bracketleft" unicode="[" horiz-adv-x="301" 
d="M101 -95v830h165v-73h-80v-683h80v-74h-165z" />
    <glyph glyph-name="backslash" unicode="\" horiz-adv-x="404" 
d="M282 -42l-254 786h86l254 -786h-86z" />
    <glyph glyph-name="bracketright" unicode="]" horiz-adv-x="302" 
d="M35 -21h81v683h-81v73h166v-830h-166v74z" />
    <glyph glyph-name="asciicircum" unicode="^" horiz-adv-x="613" 
d="M69 247l200 459h63l199 -459h-87l-144 352l-143 -352h-88z" />
    <glyph glyph-name="underscore" unicode="_" horiz-adv-x="594" 
d="M28 0h538v-78h-538v78z" />
    <glyph glyph-name="grave" unicode="`" horiz-adv-x="499" 
d="M256 755l-95 127h104l73 -127h-82z" />
    <glyph glyph-name="a" unicode="a" horiz-adv-x="528" 
d="M35 142c0 167 220 174 305 174h22v9c0 83 -47 111 -111 111c-78 0 -141 -49 -141 -49l-40 71s73 60 189 60c128 0 200 -70 200 -198v-320h-90v48c0 23 2 40 2 40h-2s-41 -100 -162 -100c-87 0 -172 53 -172 154zM133 147c0 -41 32 -81 95 -81c82 0 135 86 135 161v16h-25
c-73 0 -205 -5 -205 -96z" />
    <glyph glyph-name="b" unicode="b" horiz-adv-x="600" 
d="M76 0v706h97v-231c0 -25 -2 -43 -2 -43h2s43 86 162 86c136 0 222 -108 222 -265c0 -161 -97 -265 -230 -265c-113 0 -159 87 -159 87h-2s2 -16 2 -38v-37h-92zM170 251c0 -90 47 -180 143 -180c80 0 146 66 146 181c0 110 -59 181 -143 181c-76 0 -146 -53 -146 -182z
" />
    <glyph glyph-name="c" unicode="c" horiz-adv-x="547" 
d="M40 253c0 150 112 265 271 265c127 0 190 -74 190 -74l-46 -68s-54 58 -140 58c-102 0 -176 -76 -176 -180c0 -103 74 -182 179 -182c94 0 156 68 156 68l39 -71s-70 -81 -202 -81c-159 0 -271 113 -271 265z" />
    <glyph glyph-name="d" unicode="d" horiz-adv-x="601" 
d="M43 253c0 161 95 265 229 265c117 0 156 -80 156 -80h2s-2 15 -2 34v234h97v-706h-92v48c0 20 1 34 1 34h-2s-41 -94 -166 -94c-137 0 -223 108 -223 265zM142 253c0 -110 59 -181 143 -181c75 0 146 53 146 182c0 90 -47 180 -143 180c-80 0 -146 -66 -146 -181z" />
    <glyph glyph-name="e" unicode="e" horiz-adv-x="555" 
d="M41 253c0 161 109 265 253 265c143 0 219 -106 219 -237c0 -13 -3 -42 -3 -42h-369c5 -111 84 -167 174 -167c87 0 150 59 150 59l40 -71s-75 -72 -196 -72c-159 0 -268 115 -268 265zM144 312h270c-3 87 -57 129 -122 129c-74 0 -134 -46 -148 -129z" />
    <glyph glyph-name="f" unicode="f" horiz-adv-x="336" 
d="M103 0v421h-63v78h63v24c0 167 126 188 190 188c22 0 37 -3 37 -3v-83s-10 2 -25 2c-37 0 -106 -12 -106 -106v-22h120v-78h-120v-421h-96z" />
    <glyph glyph-name="g" unicode="g" horiz-adv-x="593" 
d="M121 -92c0 0 63 -34 139 -34c88 0 160 39 160 142v37c0 16 1 32 1 32h-2c-30 -50 -77 -79 -150 -79c-141 0 -226 113 -226 259c0 145 81 253 221 253c122 0 159 -75 159 -75h2s-1 7 -1 16v47h93v-485c0 -167 -127 -231 -255 -231c-61 0 -124 17 -173 42zM288 90
c70 0 134 42 134 174s-64 170 -143 170c-88 0 -138 -64 -138 -167c0 -105 56 -177 147 -177z" />
    <glyph glyph-name="h" unicode="h" horiz-adv-x="603" 
d="M76 0v706h97v-259c0 -24 -2 -42 -2 -42h2c22 49 86 113 187 113c119 0 174 -65 174 -194v-324h-97v302c0 71 -15 127 -96 127c-76 0 -139 -52 -160 -125c-6 -20 -8 -43 -8 -67v-237h-97z" />
    <glyph glyph-name="i" unicode="i" horiz-adv-x="249" 
d="M75 607v99h98v-99h-98zM76 0v506h97v-506h-97z" />
    <glyph glyph-name="j" unicode="j" horiz-adv-x="248" 
d="M75 607v99h98v-99h-98zM76 506h96v-523c0 -169 -130 -189 -193 -189c-21 0 -34 2 -34 2v83s9 -1 22 -1c37 0 109 12 109 111v517z" />
    <glyph glyph-name="k" unicode="k" horiz-adv-x="526" 
d="M76 0v706h97v-386h71l138 186h110l-168 -223v-2l187 -281h-113l-152 238h-73v-238h-97z" />
    <glyph glyph-name="l" unicode="l" horiz-adv-x="265" 
d="M70 138v568h97v-551c0 -61 24 -72 54 -72c9 0 17 1 17 1v-86s-15 -2 -32 -2c-55 0 -136 15 -136 142z" />
    <glyph glyph-name="m" unicode="m" horiz-adv-x="914" 
d="M76 0v506h94v-67c0 -20 -2 -37 -2 -37h2c24 59 95 116 174 116c85 0 135 -39 152 -115h2c28 61 98 115 180 115c114 0 167 -65 167 -194v-324h-97v303c0 71 -14 127 -90 127c-71 0 -124 -60 -142 -129c-5 -21 -7 -44 -7 -70v-231h-97v303c0 66 -10 127 -88 127
c-74 0 -126 -61 -145 -133c-5 -20 -6 -43 -6 -66v-231h-97z" />
    <glyph glyph-name="n" unicode="n" horiz-adv-x="603" 
d="M76 0v506h94v-67c0 -20 -2 -37 -2 -37h2c20 44 80 116 190 116c119 0 174 -65 174 -194v-324h-97v302c0 71 -15 127 -96 127c-77 0 -139 -51 -160 -124c-6 -20 -8 -43 -8 -68v-237h-97z" />
    <glyph glyph-name="o" unicode="o" horiz-adv-x="624" 
d="M39 254c0 153 122 264 273 264s273 -111 273 -264c0 -154 -122 -266 -273 -266s-273 112 -273 266zM138 254c0 -106 79 -182 174 -182c96 0 174 76 174 182c0 105 -78 180 -174 180c-95 0 -174 -75 -174 -180z" />
    <glyph glyph-name="p" unicode="p" horiz-adv-x="600" 
d="M76 -200v706h89v-43c0 -20 -2 -37 -2 -37h2s43 92 170 92c136 0 222 -108 222 -265c0 -161 -97 -265 -229 -265c-111 0 -155 83 -155 83h-2s2 -18 2 -44v-227h-97zM170 251c0 -90 50 -180 143 -180c80 0 146 66 146 181c0 110 -59 181 -143 181c-76 0 -146 -53 -146 -182
z" />
    <glyph glyph-name="q" unicode="q" horiz-adv-x="601" 
d="M43 253c0 161 95 265 229 265c117 0 160 -85 160 -85h2s-1 15 -1 35v38h92v-706h-97v231c0 26 2 44 2 44h-2s-42 -87 -162 -87c-137 0 -223 108 -223 265zM142 253c0 -110 59 -181 143 -181c75 0 146 53 146 182c0 90 -47 180 -143 180c-80 0 -146 -66 -146 -181z" />
    <glyph glyph-name="r" unicode="r" horiz-adv-x="375" 
d="M76 0v506h94v-88c0 -21 -2 -38 -2 -38h2c23 74 82 132 160 132c13 0 25 -2 25 -2v-96s-13 3 -28 3c-62 0 -119 -44 -142 -119c-9 -29 -12 -60 -12 -91v-207h-97z" />
    <glyph glyph-name="s" unicode="s" horiz-adv-x="448" 
d="M35 62l47 69s57 -59 145 -59c42 0 84 22 84 63c0 93 -260 74 -260 239c0 92 82 144 183 144c111 0 163 -56 163 -56l-39 -73s-45 45 -125 45c-42 0 -83 -18 -83 -62c0 -91 260 -71 260 -237c0 -84 -72 -147 -183 -147c-124 0 -192 74 -192 74z" />
    <glyph glyph-name="t" unicode="t" horiz-adv-x="358" 
d="M97 185v236h-66v78h69v146h94v-146h122v-78h-122v-225c0 -101 71 -114 108 -114c14 0 23 2 23 2v-86s-14 -2 -34 -2c-65 0 -194 20 -194 189z" />
    <glyph glyph-name="u" unicode="u" horiz-adv-x="598" 
d="M69 182v324h97v-302c0 -70 14 -126 95 -126c103 0 164 91 164 191v237h97v-506h-94v67c0 21 2 37 2 37h-2c-21 -50 -87 -116 -186 -116c-114 0 -173 60 -173 194z" />
    <glyph glyph-name="v" unicode="v" horiz-adv-x="502" 
d="M196 0l-189 506h103l123 -342c10 -28 16 -69 17 -69h2c1 0 8 41 18 69l123 342h102l-187 -506h-112z" />
    <glyph glyph-name="w" unicode="w" horiz-adv-x="814" 
d="M180 0l-163 506h103l105 -355c8 -26 12 -54 13 -54h2s5 28 13 54l110 354h89l109 -354c8 -26 14 -54 14 -54h2s4 28 12 54l106 355h102l-163 -506h-107l-105 325c-8 26 -14 55 -14 55h-2s-6 -29 -14 -55l-104 -325h-108z" />
    <glyph glyph-name="x" unicode="x" horiz-adv-x="508" 
d="M255 197h-2s-8 -16 -15 -28l-106 -169h-110l172 260l-163 246h111l94 -154c8 -13 17 -30 17 -30h2s9 17 17 30l94 154h111l-163 -246l172 -260h-110l-106 169c-7 12 -15 28 -15 28z" />
    <glyph glyph-name="y" unicode="y" horiz-adv-x="510" 
d="M5 -179l34 74s28 -21 59 -21c39 0 72 28 91 74l25 58l-212 500h109l127 -331c10 -26 19 -61 19 -61h2s8 34 17 60l123 332h105l-237 -597c-31 -78 -93 -119 -164 -119c-57 0 -98 31 -98 31z" />
    <glyph glyph-name="z" unicode="z" horiz-adv-x="517" 
d="M39 0v56l255 320c22 27 42 47 42 47v2s-16 -2 -49 -2h-237v83h417v-56l-255 -321c-21 -26 -43 -46 -43 -46v-2s17 2 50 2h257v-83h-437z" />
    <glyph glyph-name="braceleft" unicode="{" horiz-adv-x="350" 
d="M134 77v96c0 102 -85 109 -85 109v86s85 7 85 111v84c0 158 114 174 162 174c14 0 23 -1 23 -1v-74h-14c-25 0 -86 -9 -86 -105v-103c0 -99 -81 -127 -81 -127v-2s81 -24 81 -127v-115c0 -96 61 -105 86 -105h14v-74s-9 -2 -23 -2c-48 0 -162 16 -162 175z" />
    <glyph glyph-name="bar" unicode="|" horiz-adv-x="283" 
d="M99 -159v951h85v-951h-85z" />
    <glyph glyph-name="braceright" unicode="}" horiz-adv-x="350" 
d="M31 -22h14c25 0 86 9 86 105v115c0 103 81 127 81 127v2s-81 28 -81 127v103c0 96 -61 105 -86 105h-14v74s9 1 23 1c48 0 162 -16 162 -174v-84c0 -104 85 -111 85 -111v-86s-85 -7 -85 -109v-96c0 -159 -114 -175 -162 -175c-14 0 -23 2 -23 2v74z" />
    <glyph glyph-name="asciitilde" unicode="~" horiz-adv-x="608" 
d="M67 204c0 116 53 169 140 169c105 0 116 -98 191 -98c53 0 67 52 67 94h79c0 -117 -53 -169 -139 -169c-105 0 -116 97 -192 97c-52 0 -67 -52 -67 -93h-79z" />
    <glyph glyph-name="exclamdown" unicode="&#xa1;" horiz-adv-x="289" 
d="M94 409v97h99v-97h-99zM94 -200l7 512h87l6 -512h-100z" />
    <glyph glyph-name="cent" unicode="&#xa2;" horiz-adv-x="576" 
d="M264 -13v86c-132 18 -211 136 -211 280c0 145 79 263 211 281v84h71v-84c88 -13 154 -72 188 -155l-88 -34c-25 56 -67 99 -133 99c-96 0 -150 -83 -150 -191c0 -111 51 -190 150 -190c65 0 108 42 133 99l88 -35c-32 -74 -94 -144 -188 -154v-86h-71z" />
    <glyph glyph-name="sterling" unicode="&#xa3;" horiz-adv-x="591" 
d="M73 319v70h44v136c0 111 91 193 217 193c101 0 167 -64 167 -64l-57 -69s-48 43 -109 43c-74 0 -118 -48 -118 -107v-132h184v-70h-184v-233h325v-86h-486v86h61v233h-44z" />
    <glyph glyph-name="yen" unicode="&#xa5;" horiz-adv-x="607" 
d="M90 347v63h103l-165 296h113l118 -220c22 -47 43 -102 43 -102h2s21 55 43 102l119 220h113l-166 -296h102v-63h-135l-27 -48v-37h162v-63h-162v-199h-100v199h-163v63h163v37l-27 48h-136z" />
    <glyph glyph-name="section" unicode="&#xa7;" horiz-adv-x="442" 
d="M139 111l-70 390c-4 15 -6 31 -6 46c0 97 71 171 189 171c86 0 141 -51 141 -51l-46 -64s-40 34 -95 34c-60 0 -107 -33 -107 -101c0 -12 2 -25 6 -40l68 -385h-80zM48 -11l44 67s41 -37 97 -37c59 0 106 35 106 105c0 13 -2 28 -6 45l-66 376h79l70 -390
c3 -16 5 -31 5 -45c0 -99 -71 -172 -188 -172c-87 0 -141 51 -141 51z" />
    <glyph glyph-name="dieresis" unicode="&#xa8;" horiz-adv-x="499" 
d="M293 781v101h80v-101h-80zM126 781v101h80v-101h-80z" />
    <glyph glyph-name="copyright" unicode="&#xa9;" horiz-adv-x="821" 
d="M54 353c0 203 158 365 355 365c199 0 358 -162 358 -365s-159 -365 -358 -365c-197 0 -355 162 -355 365zM127 353c0 -167 123 -297 282 -297c161 0 285 130 285 297s-124 297 -285 297c-159 0 -282 -130 -282 -297zM219 352c0 105 76 200 197 200c115 0 163 -99 163 -99
l-61 -33s-34 63 -99 63c-79 0 -124 -62 -124 -131c0 -71 43 -131 124 -131c66 0 99 63 99 63l61 -33s-48 -99 -163 -99c-121 0 -197 94 -197 200z" />
    <glyph glyph-name="ordfeminine" unicode="&#xaa;" horiz-adv-x="422" 
d="M182 382c-53 0 -108 34 -108 97c0 107 134 110 188 110h10v6c0 47 -27 63 -64 63c-43 0 -83 -28 -83 -28l-29 49s45 37 121 37c83 0 127 -45 127 -126v-201h-68v46h-2s-27 -53 -92 -53zM197 441c46 0 75 47 75 89v8h-12c-38 0 -114 -3 -114 -54c0 -23 18 -43 51 -43z
M73 265v57h275v-57h-275z" />
    <glyph glyph-name="guillemotleft" unicode="&#xab;" horiz-adv-x="556" 
d="M245 282l164 206h97l-164 -206l164 -205h-97zM208 77l-164 205l164 206h97l-164 -206l164 -205h-97z" />
    <glyph glyph-name="logicalnot" unicode="&#xac;" horiz-adv-x="614" 
d="M60 340v78h477v-267h-81v189h-396z" />
    <glyph glyph-name="registered" unicode="&#xae;" horiz-adv-x="821" 
d="M54 353c0 203 158 365 355 365c199 0 358 -162 358 -365s-159 -365 -358 -365c-197 0 -355 162 -355 365zM127 353c0 -167 123 -297 282 -297c161 0 285 130 285 297s-124 297 -285 297c-159 0 -282 -130 -282 -297zM287 166v377h145c71 0 119 -45 119 -115
c0 -58 -38 -92 -69 -100v-2s4 -4 13 -21l72 -139h-78l-70 146h-61v-146h-71zM358 364h60c37 0 61 24 61 64c0 39 -24 61 -61 61h-60v-125z" />
    <glyph glyph-name="macron" unicode="&#xaf;" horiz-adv-x="499" 
d="M122 784v70h255v-70h-255z" />
    <glyph glyph-name="degree" unicode="&#xb0;" 
d="M194 422c-84 0 -151 66 -151 148c0 81 67 148 151 148s152 -67 152 -148c0 -82 -68 -148 -152 -148zM194 496c42 0 74 33 74 74s-32 75 -74 75s-74 -34 -74 -75s32 -74 74 -74z" />
    <glyph glyph-name="plusminus" unicode="&#xb1;" horiz-adv-x="681" 
d="M76 246v78h224v246h82v-246h223v-78h-223v-246h-82v246h-224zM92 -95h497v-78h-497v78z" />
    <glyph glyph-name="twosuperior" unicode="&#xb2;" 
d="M50 423c-1 12 -3 25 -3 36c0 169 212 177 212 277c0 37 -30 65 -72 65c-49 0 -84 -48 -84 -48l-49 45s45 72 137 72c82 0 144 -52 144 -131c0 -146 -200 -156 -206 -250h213v-66h-292z" />
    <glyph glyph-name="threesuperior" unicode="&#xb3;" 
d="M187 413c-101 0 -147 66 -147 66l42 53s36 -50 102 -50c42 0 83 32 83 76c0 46 -44 71 -89 71h-34l-16 38l89 103c9 11 24 24 24 24v2s-19 -3 -36 -3h-141v67h271v-48l-109 -126c60 -9 117 -48 117 -128c0 -77 -64 -145 -156 -145z" />
    <glyph glyph-name="acute" unicode="&#xb4;" horiz-adv-x="499" 
d="M161 755l73 127h104l-96 -127h-81z" />
    <glyph glyph-name="mu" unicode="&#xb5;" horiz-adv-x="619" 
d="M83 -200v706h97v-302c0 -70 14 -126 94 -126c104 0 165 91 165 191v237h97v-506h-94v69c0 18 2 35 2 35h-3s-47 -116 -186 -116c-67 0 -91 31 -91 31h-2s7 -49 7 -78v-141h-86z" />
    <glyph glyph-name="mu" unicode="&#x3bc;" horiz-adv-x="619" 
d="M83 -200v706h97v-302c0 -70 14 -126 94 -126c104 0 165 91 165 191v237h97v-506h-94v69c0 18 2 35 2 35h-3s-47 -116 -186 -116c-67 0 -91 31 -91 31h-2s7 -49 7 -78v-141h-86z" />
    <glyph glyph-name="paragraph" unicode="&#xb6;" horiz-adv-x="590" 
d="M280 -50v291c-129 0 -237 102 -237 233s107 232 236 232h272v-86h-196v-670h-75zM417 -50v613h74v-613h-74z" />
    <glyph glyph-name="periodcentered" unicode="&#xb7;" horiz-adv-x="275" 
d="M88 239v103h99v-103h-99z" />
    <glyph glyph-name="cedilla" unicode="&#xb8;" horiz-adv-x="499" 
d="M219 23l49 -10v-8l-12 -55c41 -5 72 -30 72 -73c0 -62 -51 -84 -102 -84c-32 0 -55 7 -55 7v58s20 -7 42 -7c25 0 48 8 48 31c0 21 -22 31 -53 31c-9 0 -18 -1 -18 -1z" />
    <glyph glyph-name="onesuperior" unicode="&#xb9;" 
d="M71 423v66h93v249c0 14 2 26 2 26h-2s-4 -9 -18 -22l-35 -34l-46 49l106 103h68v-371h91v-66h-259z" />
    <glyph glyph-name="ordmasculine" unicode="&#xba;" horiz-adv-x="467" 
d="M233 384c-95 0 -171 70 -171 168c0 95 76 165 170 165c95 0 172 -70 172 -165c0 -98 -77 -168 -171 -168zM233 448c54 0 98 43 98 104c0 59 -44 101 -98 101c-55 0 -99 -42 -99 -101c0 -61 44 -104 99 -104zM78 265v57h312v-57h-312z" />
    <glyph glyph-name="guillemotright" unicode="&#xbb;" horiz-adv-x="557" 
d="M252 77l164 205l-164 206h97l164 -206l-164 -205h-97zM50 77l164 205l-164 206h97l164 -206l-164 -205h-97z" />
    <glyph glyph-name="onequarter" unicode="&#xbc;" horiz-adv-x="967" 
d="M336 0h-75l336 706h75zM59 269v66h93v249c0 14 2 26 2 26h-2s-4 -9 -18 -22l-35 -34l-46 49l106 103h68v-371h91v-66h-259zM778 0v107h-208v50l201 280h81v-264h61v-66h-61v-107h-74zM652 173h126v123c0 26 3 58 3 58h-2s-14 -27 -29 -48l-98 -131v-2z" />
    <glyph glyph-name="onehalf" unicode="&#xbd;" horiz-adv-x="961" 
d="M338 0h-75l336 706h75zM59 269v66h93v249c0 14 2 26 2 26h-2s-4 -9 -18 -22l-35 -34l-46 49l106 103h68v-371h91v-66h-259zM603 0c-1 12 -3 25 -3 36c0 169 212 177 212 277c0 37 -30 65 -72 65c-49 0 -84 -48 -84 -48l-49 45s45 72 137 72c82 0 144 -52 144 -131
c0 -146 -200 -156 -206 -250h213v-66h-292z" />
    <glyph glyph-name="threequarters" unicode="&#xbe;" horiz-adv-x="979" 
d="M348 0h-75l336 706h75zM790 0v107h-208v50l201 280h81v-264h61v-66h-61v-107h-74zM664 173h126v123c0 26 3 58 3 58h-2s-14 -27 -29 -48l-98 -131v-2zM187 259c-101 0 -147 66 -147 66l42 53s36 -50 102 -50c42 0 83 32 83 76c0 46 -44 71 -89 71h-34l-16 38l89 103
c9 11 24 24 24 24v2s-19 -3 -36 -3h-141v67h271v-48l-109 -126c60 -9 117 -48 117 -128c0 -77 -64 -145 -156 -145z" />
    <glyph glyph-name="questiondown" unicode="&#xbf;" horiz-adv-x="450" 
d="M214 409v97h99v-97h-99zM39 -28c0 165 177 182 177 303v37h94v-43c0 -152 -169 -175 -169 -289c0 -56 48 -100 114 -100c63 0 114 43 114 43l53 -69s-65 -64 -174 -64c-113 0 -209 71 -209 182z" />
    <glyph glyph-name="Agrave" unicode="&#xc0;" horiz-adv-x="628" 
d="M517 0l-71 203h-266l-70 -203h-102l254 706h104l254 -706h-103zM315 609h-2s-16 -64 -28 -100l-79 -224h214l-78 224c-12 36 -27 100 -27 100zM275 755l-95 127h104l73 -127h-82z" />
    <glyph glyph-name="Aacute" unicode="&#xc1;" horiz-adv-x="628" 
d="M517 0l-71 203h-266l-70 -203h-102l254 706h104l254 -706h-103zM315 609h-2s-16 -64 -28 -100l-79 -224h214l-78 224c-12 36 -27 100 -27 100zM270 755l73 127h104l-96 -127h-81z" />
    <glyph glyph-name="Acircumflex" unicode="&#xc2;" horiz-adv-x="628" 
d="M517 0l-71 203h-266l-70 -203h-102l254 706h104l254 -706h-103zM315 609h-2s-16 -64 -28 -100l-79 -224h214l-78 224c-12 36 -27 100 -27 100zM175 755l88 127h101l88 -127h-85l-53 80h-2l-52 -80h-85z" />
    <glyph glyph-name="Atilde" unicode="&#xc3;" horiz-adv-x="628" 
d="M517 0l-71 203h-266l-70 -203h-102l254 706h104l254 -706h-103zM315 609h-2s-16 -64 -28 -100l-79 -224h214l-78 224c-12 36 -27 100 -27 100zM146 756c0 84 34 127 102 127c67 0 83 -68 126 -68c30 0 39 36 39 65h70c0 -83 -34 -127 -102 -127c-67 0 -83 68 -126 68
c-30 0 -39 -35 -39 -65h-70z" />
    <glyph glyph-name="Adieresis" unicode="&#xc4;" horiz-adv-x="628" 
d="M517 0l-71 203h-266l-70 -203h-102l254 706h104l254 -706h-103zM315 609h-2s-16 -64 -28 -100l-79 -224h214l-78 224c-12 36 -27 100 -27 100zM358 781v101h80v-101h-80zM191 781v101h80v-101h-80z" />
    <glyph glyph-name="Aring" unicode="&#xc5;" horiz-adv-x="628" 
d="M517 0l-71 203h-266l-70 -203h-102l254 706h104l254 -706h-103zM315 609h-2s-16 -64 -28 -100l-79 -224h214l-78 224c-12 36 -27 100 -27 100zM314 743c-45 0 -85 28 -85 74c0 47 40 75 85 75c44 0 85 -28 85 -75c0 -46 -41 -74 -85 -74zM314 784c19 0 33 14 33 33
c0 21 -14 35 -33 35c-20 0 -33 -14 -33 -35c0 -19 13 -33 33 -33z" />
    <glyph glyph-name="AE" unicode="&#xc6;" horiz-adv-x="878" 
d="M4 0l292 706h516v-86h-312v-221h254v-86h-254v-227h329v-86h-427v314h-169l-126 -314h-103zM356 620l-90 -224h136v224h-46z" />
    <glyph glyph-name="Ccedilla" unicode="&#xc7;" horiz-adv-x="724" 
d="M50 357c0 205 154 361 359 361c170 0 257 -93 257 -93l-49 -74s-82 77 -204 77c-158 0 -261 -120 -261 -270c0 -151 105 -279 262 -279c133 0 218 92 218 92l53 -71s-92 -105 -259 -112l-8 -38c41 -5 72 -30 72 -73c0 -62 -51 -84 -102 -84c-32 0 -55 7 -55 7v58
s20 -7 42 -7c25 0 48 8 48 31c0 21 -22 31 -53 31c-9 0 -18 -1 -18 -1l20 78c-191 18 -322 173 -322 367z" />
    <glyph glyph-name="Egrave" unicode="&#xc8;" horiz-adv-x="573" 
d="M96 0v706h410v-86h-311v-221h253v-86h-253v-227h328v-86h-427zM273 755l-95 127h104l73 -127h-82z" />
    <glyph glyph-name="Eacute" unicode="&#xc9;" horiz-adv-x="573" 
d="M96 0v706h410v-86h-311v-221h253v-86h-253v-227h328v-86h-427zM269 755l73 127h104l-96 -127h-81z" />
    <glyph glyph-name="Ecircumflex" unicode="&#xca;" horiz-adv-x="573" 
d="M96 0v706h410v-86h-311v-221h253v-86h-253v-227h328v-86h-427zM174 755l88 127h101l88 -127h-85l-53 80h-2l-52 -80h-85z" />
    <glyph glyph-name="Edieresis" unicode="&#xcb;" horiz-adv-x="573" 
d="M96 0v706h410v-86h-311v-221h253v-86h-253v-227h328v-86h-427zM356 781v101h80v-101h-80zM189 781v101h80v-101h-80z" />
    <glyph glyph-name="Igrave" unicode="&#xcc;" horiz-adv-x="291" 
d="M96 0v706h99v-706h-99zM107 755l-95 127h104l73 -127h-82z" />
    <glyph glyph-name="Iacute" unicode="&#xcd;" horiz-adv-x="291" 
d="M96 0v706h99v-706h-99zM103 755l73 127h104l-96 -127h-81z" />
    <glyph glyph-name="Icircumflex" unicode="&#xce;" horiz-adv-x="291" 
d="M96 0v706h99v-706h-99zM7 755l88 127h101l88 -127h-85l-53 80h-2l-52 -80h-85z" />
    <glyph glyph-name="Idieresis" unicode="&#xcf;" horiz-adv-x="291" 
d="M96 0v706h99v-706h-99zM190 781v101h80v-101h-80zM23 781v101h80v-101h-80z" />
    <glyph glyph-name="Eth" unicode="&#xd0;" horiz-adv-x="759" 
d="M115 0v312h-59v82h59v312h234c216 0 358 -129 358 -352c0 -224 -142 -354 -358 -354h-234zM214 86h128c159 0 263 94 263 268c0 173 -105 266 -263 266h-128v-226h149v-82h-149v-226z" />
    <glyph glyph-name="Ntilde" unicode="&#xd1;" horiz-adv-x="757" 
d="M96 0v706h98l314 -459c26 -38 59 -102 59 -102h2s-7 63 -7 102v459h99v-706h-97l-315 458c-26 39 -59 103 -59 103h-2s7 -63 7 -103v-458h-99zM210 756c0 84 34 127 102 127c67 0 83 -68 126 -68c30 0 39 36 39 65h70c0 -83 -34 -127 -102 -127c-67 0 -83 68 -126 68
c-30 0 -39 -35 -39 -65h-70z" />
    <glyph glyph-name="Ograve" unicode="&#xd2;" horiz-adv-x="821" 
d="M48 358c0 203 159 360 363 360s362 -157 362 -360c0 -208 -158 -370 -362 -370s-363 162 -363 370zM150 358c0 -159 117 -279 261 -279s260 120 260 279c0 154 -116 270 -260 270s-261 -116 -261 -270zM372 755l-95 127h104l73 -127h-82z" />
    <glyph glyph-name="Oacute" unicode="&#xd3;" horiz-adv-x="821" 
d="M48 358c0 203 159 360 363 360s362 -157 362 -360c0 -208 -158 -370 -362 -370s-363 162 -363 370zM150 358c0 -159 117 -279 261 -279s260 120 260 279c0 154 -116 270 -260 270s-261 -116 -261 -270zM368 755l73 127h104l-96 -127h-81z" />
    <glyph glyph-name="Ocircumflex" unicode="&#xd4;" horiz-adv-x="821" 
d="M48 358c0 203 159 360 363 360s362 -157 362 -360c0 -208 -158 -370 -362 -370s-363 162 -363 370zM150 358c0 -159 117 -279 261 -279s260 120 260 279c0 154 -116 270 -260 270s-261 -116 -261 -270zM272 755l88 127h101l88 -127h-85l-53 80h-2l-52 -80h-85z" />
    <glyph glyph-name="Otilde" unicode="&#xd5;" horiz-adv-x="821" 
d="M48 358c0 203 159 360 363 360s362 -157 362 -360c0 -208 -158 -370 -362 -370s-363 162 -363 370zM150 358c0 -159 117 -279 261 -279s260 120 260 279c0 154 -116 270 -260 270s-261 -116 -261 -270zM243 756c0 84 34 127 102 127c67 0 83 -68 126 -68
c30 0 39 36 39 65h70c0 -83 -34 -127 -102 -127c-67 0 -83 68 -126 68c-30 0 -39 -35 -39 -65h-70z" />
    <glyph glyph-name="Odieresis" unicode="&#xd6;" horiz-adv-x="821" 
d="M48 358c0 203 159 360 363 360s362 -157 362 -360c0 -208 -158 -370 -362 -370s-363 162 -363 370zM150 358c0 -159 117 -279 261 -279s260 120 260 279c0 154 -116 270 -260 270s-261 -116 -261 -270zM455 781v101h80v-101h-80zM288 781v101h80v-101h-80z" />
    <glyph glyph-name="multiply" unicode="&#xd7;" horiz-adv-x="645" 
d="M63 55l206 230l-206 230l55 55l204 -228l205 228l55 -55l-207 -230l207 -230l-55 -55l-205 227l-204 -227z" />
    <glyph glyph-name="Oslash" unicode="&#xd8;" horiz-adv-x="824" 
d="M50 358c0 203 159 360 363 360c68 0 131 -18 185 -49l46 63l49 -34l-46 -64c79 -65 128 -163 128 -276c0 -208 -158 -370 -362 -370c-71 0 -137 19 -192 53l-47 -66l-50 34l49 69c-76 67 -123 166 -123 280zM673 358c0 80 -31 150 -82 198l-314 -438
c39 -25 86 -39 136 -39c144 0 260 120 260 279zM152 358c0 -81 30 -151 78 -201l313 435c-38 23 -83 36 -130 36c-144 0 -261 -116 -261 -270z" />
    <glyph glyph-name="Ugrave" unicode="&#xd9;" horiz-adv-x="728" 
d="M86 250v456h99v-456c0 -108 70 -171 178 -171c109 0 180 63 180 173v454h99v-456c0 -157 -113 -262 -278 -262s-278 105 -278 262zM325 755l-95 127h104l73 -127h-82z" />
    <glyph glyph-name="Uacute" unicode="&#xda;" horiz-adv-x="728" 
d="M86 250v456h99v-456c0 -108 70 -171 178 -171c109 0 180 63 180 173v454h99v-456c0 -157 -113 -262 -278 -262s-278 105 -278 262zM320 755l73 127h104l-96 -127h-81z" />
    <glyph glyph-name="Ucircumflex" unicode="&#xdb;" horiz-adv-x="728" 
d="M86 250v456h99v-456c0 -108 70 -171 178 -171c109 0 180 63 180 173v454h99v-456c0 -157 -113 -262 -278 -262s-278 105 -278 262zM225 755l88 127h101l88 -127h-85l-53 80h-2l-52 -80h-85z" />
    <glyph glyph-name="Udieresis" unicode="&#xdc;" horiz-adv-x="728" 
d="M86 250v456h99v-456c0 -108 70 -171 178 -171c109 0 180 63 180 173v454h99v-456c0 -157 -113 -262 -278 -262s-278 105 -278 262zM408 781v101h80v-101h-80zM241 781v101h80v-101h-80z" />
    <glyph glyph-name="Yacute" unicode="&#xdd;" horiz-adv-x="588" 
d="M245 0v299l-237 407h112l131 -232c22 -39 43 -89 43 -89h2s21 49 43 89l129 232h112l-236 -407v-299h-99zM251 755l73 127h104l-96 -127h-81z" />
    <glyph glyph-name="Thorn" unicode="&#xde;" horiz-adv-x="607" 
d="M96 0v706h98v-120h160c129 0 221 -87 221 -221s-92 -224 -222 -224h-159v-141h-98zM194 227h144c85 0 137 53 137 138s-52 135 -136 135h-145v-273z" />
    <glyph glyph-name="germandbls" unicode="&#xdf;" horiz-adv-x="588" 
d="M76 0v530c0 123 107 188 216 188c111 0 190 -72 190 -161c0 -97 -100 -126 -100 -186c0 -63 179 -99 179 -226c0 -102 -83 -152 -171 -152c-93 0 -142 29 -142 29v86s56 -31 130 -31c44 0 84 21 84 72c0 81 -179 112 -179 219c0 83 101 115 101 188c0 39 -32 78 -95 78
c-59 0 -116 -36 -116 -111v-523h-97z" />
    <glyph glyph-name="agrave" unicode="&#xe0;" horiz-adv-x="528" 
d="M35 142c0 167 220 174 305 174h22v9c0 83 -47 111 -111 111c-78 0 -141 -49 -141 -49l-40 71s73 60 189 60c128 0 200 -70 200 -198v-320h-90v48c0 23 2 40 2 40h-2s-41 -100 -162 -100c-87 0 -172 53 -172 154zM133 147c0 -41 32 -81 95 -81c82 0 135 86 135 161v16h-25
c-73 0 -205 -5 -205 -96zM224 579l-95 127h104l73 -127h-82z" />
    <glyph glyph-name="aacute" unicode="&#xe1;" horiz-adv-x="528" 
d="M35 142c0 167 220 174 305 174h22v9c0 83 -47 111 -111 111c-78 0 -141 -49 -141 -49l-40 71s73 60 189 60c128 0 200 -70 200 -198v-320h-90v48c0 23 2 40 2 40h-2s-41 -100 -162 -100c-87 0 -172 53 -172 154zM133 147c0 -41 32 -81 95 -81c82 0 135 86 135 161v16h-25
c-73 0 -205 -5 -205 -96zM218 579l73 127h104l-96 -127h-81z" />
    <glyph glyph-name="acircumflex" unicode="&#xe2;" horiz-adv-x="528" 
d="M35 142c0 167 220 174 305 174h22v9c0 83 -47 111 -111 111c-78 0 -141 -49 -141 -49l-40 71s73 60 189 60c128 0 200 -70 200 -198v-320h-90v48c0 23 2 40 2 40h-2s-41 -100 -162 -100c-87 0 -172 53 -172 154zM133 147c0 -41 32 -81 95 -81c82 0 135 86 135 161v16h-25
c-73 0 -205 -5 -205 -96zM123 579l88 127h101l88 -127h-85l-53 80h-2l-52 -80h-85z" />
    <glyph glyph-name="atilde" unicode="&#xe3;" horiz-adv-x="528" 
d="M35 142c0 167 220 174 305 174h22v9c0 83 -47 111 -111 111c-78 0 -141 -49 -141 -49l-40 71s73 60 189 60c128 0 200 -70 200 -198v-320h-90v48c0 23 2 40 2 40h-2s-41 -100 -162 -100c-87 0 -172 53 -172 154zM133 147c0 -41 32 -81 95 -81c82 0 135 86 135 161v16h-25
c-73 0 -205 -5 -205 -96zM94 580c0 84 34 127 102 127c67 0 83 -68 126 -68c30 0 39 36 39 65h70c0 -83 -34 -127 -102 -127c-67 0 -83 68 -126 68c-30 0 -39 -35 -39 -65h-70z" />
    <glyph glyph-name="adieresis" unicode="&#xe4;" horiz-adv-x="528" 
d="M35 142c0 167 220 174 305 174h22v9c0 83 -47 111 -111 111c-78 0 -141 -49 -141 -49l-40 71s73 60 189 60c128 0 200 -70 200 -198v-320h-90v48c0 23 2 40 2 40h-2s-41 -100 -162 -100c-87 0 -172 53 -172 154zM133 147c0 -41 32 -81 95 -81c82 0 135 86 135 161v16h-25
c-73 0 -205 -5 -205 -96zM306 605v101h80v-101h-80zM139 605v101h80v-101h-80z" />
    <glyph glyph-name="aring" unicode="&#xe5;" horiz-adv-x="528" 
d="M35 142c0 167 220 174 305 174h22v9c0 83 -47 111 -111 111c-78 0 -141 -49 -141 -49l-40 71s73 60 189 60c128 0 200 -70 200 -198v-320h-90v48c0 23 2 40 2 40h-2s-41 -100 -162 -100c-87 0 -172 53 -172 154zM133 147c0 -41 32 -81 95 -81c82 0 135 86 135 161v16h-25
c-73 0 -205 -5 -205 -96zM262 567c-45 0 -85 28 -85 74c0 47 40 75 85 75c44 0 85 -28 85 -75c0 -46 -41 -74 -85 -74zM262 608c19 0 33 14 33 33c0 21 -14 35 -33 35c-20 0 -33 -14 -33 -35c0 -19 13 -33 33 -33z" />
    <glyph glyph-name="ae" unicode="&#xe6;" horiz-adv-x="864" 
d="M36 142c0 158 198 174 302 174h25v9c0 83 -47 111 -114 111c-76 0 -139 -49 -139 -49l-39 71s70 60 185 60c94 0 143 -35 168 -89h2c40 59 103 89 185 89c136 0 211 -108 211 -246c0 -11 -2 -29 -2 -29h-363c5 -114 77 -171 168 -171c87 0 150 58 150 58l40 -70
s-75 -72 -195 -72c-102 0 -178 48 -218 127h-2c-9 -26 -60 -127 -191 -127c-93 0 -173 56 -173 154zM461 316h263c-3 86 -58 125 -120 125c-74 0 -129 -40 -143 -125zM135 147c0 -42 31 -81 95 -81c83 0 134 87 134 162v15h-47c-76 0 -182 -14 -182 -96z" />
    <glyph glyph-name="ccedilla" unicode="&#xe7;" horiz-adv-x="548" 
d="M41 253c0 150 112 265 271 265c127 0 190 -74 190 -74l-46 -68s-54 58 -140 58c-102 0 -176 -76 -176 -180c0 -103 74 -182 179 -182c94 0 156 68 156 68l39 -71s-66 -76 -190 -81l-8 -38c41 -5 72 -30 72 -73c0 -62 -51 -84 -102 -84c-32 0 -55 7 -55 7v58s20 -7 42 -7
c25 0 48 8 48 31c0 21 -22 31 -53 31c-9 0 -18 -1 -18 -1l20 79c-136 18 -229 123 -229 262z" />
    <glyph glyph-name="egrave" unicode="&#xe8;" horiz-adv-x="555" 
d="M41 253c0 161 109 265 253 265c143 0 219 -106 219 -237c0 -13 -3 -42 -3 -42h-369c5 -111 84 -167 174 -167c87 0 150 59 150 59l40 -71s-75 -72 -196 -72c-159 0 -268 115 -268 265zM144 312h270c-3 87 -57 129 -122 129c-74 0 -134 -46 -148 -129zM256 579l-95 127
h104l73 -127h-82z" />
    <glyph glyph-name="eacute" unicode="&#xe9;" horiz-adv-x="555" 
d="M41 253c0 161 109 265 253 265c143 0 219 -106 219 -237c0 -13 -3 -42 -3 -42h-369c5 -111 84 -167 174 -167c87 0 150 59 150 59l40 -71s-75 -72 -196 -72c-159 0 -268 115 -268 265zM144 312h270c-3 87 -57 129 -122 129c-74 0 -134 -46 -148 -129zM251 579l73 127h104
l-96 -127h-81z" />
    <glyph glyph-name="ecircumflex" unicode="&#xea;" horiz-adv-x="555" 
d="M41 253c0 161 109 265 253 265c143 0 219 -106 219 -237c0 -13 -3 -42 -3 -42h-369c5 -111 84 -167 174 -167c87 0 150 59 150 59l40 -71s-75 -72 -196 -72c-159 0 -268 115 -268 265zM144 312h270c-3 87 -57 129 -122 129c-74 0 -134 -46 -148 -129zM155 579l88 127h101
l88 -127h-85l-53 80h-2l-52 -80h-85z" />
    <glyph glyph-name="edieresis" unicode="&#xeb;" horiz-adv-x="555" 
d="M41 253c0 161 109 265 253 265c143 0 219 -106 219 -237c0 -13 -3 -42 -3 -42h-369c5 -111 84 -167 174 -167c87 0 150 59 150 59l40 -71s-75 -72 -196 -72c-159 0 -268 115 -268 265zM144 312h270c-3 87 -57 129 -122 129c-74 0 -134 -46 -148 -129zM338 605v101h80
v-101h-80zM171 605v101h80v-101h-80z" />
    <glyph glyph-name="igrave" unicode="&#xec;" horiz-adv-x="249" 
d="M86 579l-95 127h104l73 -127h-82zM76 0v506h97v-506h-97z" />
    <glyph glyph-name="iacute" unicode="&#xed;" horiz-adv-x="249" 
d="M82 579l73 127h104l-96 -127h-81zM76 0v506h97v-506h-97z" />
    <glyph glyph-name="icircumflex" unicode="&#xee;" horiz-adv-x="249" 
d="M76 0v506h97v-506h-97zM-13 579l88 127h101l88 -127h-85l-53 80h-2l-52 -80h-85z" />
    <glyph glyph-name="idieresis" unicode="&#xef;" horiz-adv-x="249" 
d="M169 605v101h80v-101h-80zM2 605v101h80v-101h-80zM76 0v506h97v-506h-97z" />
    <glyph glyph-name="eth" unicode="&#xf0;" horiz-adv-x="589" 
d="M43 235c0 118 83 231 237 231c80 0 123 -42 123 -42h2c-21 56 -60 100 -109 133l-181 -80l-10 62l124 55c-40 20 -85 36 -129 46l27 79c71 -16 143 -42 207 -80l139 61l9 -61l-92 -42c84 -70 144 -176 144 -322c0 -135 -72 -287 -254 -287c-152 0 -237 122 -237 247z
M141 233c0 -82 48 -161 141 -161c109 0 153 100 153 186c0 75 -55 130 -141 130c-104 0 -153 -77 -153 -155z" />
    <glyph glyph-name="ntilde" unicode="&#xf1;" horiz-adv-x="603" 
d="M76 0v506h94v-67c0 -20 -2 -37 -2 -37h2c20 44 80 116 190 116c119 0 174 -65 174 -194v-324h-97v302c0 71 -15 127 -96 127c-77 0 -139 -51 -160 -124c-6 -20 -8 -43 -8 -68v-237h-97zM145 580c0 84 34 127 102 127c67 0 83 -68 126 -68c30 0 39 36 39 65h70
c0 -83 -34 -127 -102 -127c-67 0 -83 68 -126 68c-30 0 -39 -35 -39 -65h-70z" />
    <glyph glyph-name="ograve" unicode="&#xf2;" horiz-adv-x="624" 
d="M39 254c0 153 122 264 273 264s273 -111 273 -264c0 -154 -122 -266 -273 -266s-273 112 -273 266zM138 254c0 -106 79 -182 174 -182c96 0 174 76 174 182c0 105 -78 180 -174 180c-95 0 -174 -75 -174 -180zM273 579l-95 127h104l73 -127h-82z" />
    <glyph glyph-name="oacute" unicode="&#xf3;" horiz-adv-x="624" 
d="M39 254c0 153 122 264 273 264s273 -111 273 -264c0 -154 -122 -266 -273 -266s-273 112 -273 266zM138 254c0 -106 79 -182 174 -182c96 0 174 76 174 182c0 105 -78 180 -174 180c-95 0 -174 -75 -174 -180zM269 579l73 127h104l-96 -127h-81z" />
    <glyph glyph-name="ocircumflex" unicode="&#xf4;" horiz-adv-x="624" 
d="M39 254c0 153 122 264 273 264s273 -111 273 -264c0 -154 -122 -266 -273 -266s-273 112 -273 266zM138 254c0 -106 79 -182 174 -182c96 0 174 76 174 182c0 105 -78 180 -174 180c-95 0 -174 -75 -174 -180zM174 579l88 127h101l88 -127h-85l-53 80h-2l-52 -80h-85z
" />
    <glyph glyph-name="otilde" unicode="&#xf5;" horiz-adv-x="624" 
d="M39 254c0 153 122 264 273 264s273 -111 273 -264c0 -154 -122 -266 -273 -266s-273 112 -273 266zM138 254c0 -106 79 -182 174 -182c96 0 174 76 174 182c0 105 -78 180 -174 180c-95 0 -174 -75 -174 -180zM144 580c0 84 34 127 102 127c67 0 83 -68 126 -68
c30 0 39 36 39 65h70c0 -83 -34 -127 -102 -127c-67 0 -83 68 -126 68c-30 0 -39 -35 -39 -65h-70z" />
    <glyph glyph-name="odieresis" unicode="&#xf6;" horiz-adv-x="624" 
d="M39 254c0 153 122 264 273 264s273 -111 273 -264c0 -154 -122 -266 -273 -266s-273 112 -273 266zM138 254c0 -106 79 -182 174 -182c96 0 174 76 174 182c0 105 -78 180 -174 180c-95 0 -174 -75 -174 -180zM356 605v101h80v-101h-80zM189 605v101h80v-101h-80z" />
    <glyph glyph-name="divide" unicode="&#xf7;" horiz-adv-x="635" 
d="M270 435v91h94v-91h-94zM65 246v78h505v-78h-505zM270 44v91h94v-91h-94z" />
    <glyph glyph-name="oslash" unicode="&#xf8;" horiz-adv-x="624" 
d="M39 254c0 153 122 264 273 264c49 0 95 -12 135 -33l40 55l47 -34l-39 -54c55 -47 90 -117 90 -198c0 -154 -122 -266 -273 -266c-46 0 -90 11 -128 29l-39 -55l-48 35l37 52c-58 47 -95 120 -95 205zM138 254c0 -53 19 -98 50 -130l208 289c-25 13 -54 21 -84 21
c-95 0 -174 -75 -174 -180zM486 254c0 49 -17 91 -45 122l-205 -287c23 -11 49 -17 76 -17c96 0 174 76 174 182z" />
    <glyph glyph-name="ugrave" unicode="&#xf9;" horiz-adv-x="598" 
d="M69 182v324h97v-302c0 -70 14 -126 95 -126c103 0 164 91 164 191v237h97v-506h-94v67c0 21 2 37 2 37h-2c-21 -50 -87 -116 -186 -116c-114 0 -173 60 -173 194zM257 579l-95 127h104l73 -127h-82z" />
    <glyph glyph-name="uacute" unicode="&#xfa;" horiz-adv-x="598" 
d="M69 182v324h97v-302c0 -70 14 -126 95 -126c103 0 164 91 164 191v237h97v-506h-94v67c0 21 2 37 2 37h-2c-21 -50 -87 -116 -186 -116c-114 0 -173 60 -173 194zM252 579l73 127h104l-96 -127h-81z" />
    <glyph glyph-name="ucircumflex" unicode="&#xfb;" horiz-adv-x="598" 
d="M69 182v324h97v-302c0 -70 14 -126 95 -126c103 0 164 91 164 191v237h97v-506h-94v67c0 21 2 37 2 37h-2c-21 -50 -87 -116 -186 -116c-114 0 -173 60 -173 194zM157 579l88 127h101l88 -127h-85l-53 80h-2l-52 -80h-85z" />
    <glyph glyph-name="udieresis" unicode="&#xfc;" horiz-adv-x="598" 
d="M69 182v324h97v-302c0 -70 14 -126 95 -126c103 0 164 91 164 191v237h97v-506h-94v67c0 21 2 37 2 37h-2c-21 -50 -87 -116 -186 -116c-114 0 -173 60 -173 194zM340 605v101h80v-101h-80zM173 605v101h80v-101h-80z" />
    <glyph glyph-name="yacute" unicode="&#xfd;" horiz-adv-x="510" 
d="M5 -179l34 74s28 -21 59 -21c39 0 72 28 91 74l25 58l-212 500h109l127 -331c10 -26 19 -61 19 -61h2s8 34 17 60l123 332h105l-237 -597c-31 -78 -93 -119 -164 -119c-57 0 -98 31 -98 31zM215 579l73 127h104l-96 -127h-81z" />
    <glyph glyph-name="thorn" unicode="&#xfe;" horiz-adv-x="600" 
d="M76 -200v906h97v-230c0 -25 -1 -42 -1 -42h2c13 14 53 84 159 84c138 0 225 -111 225 -265c0 -156 -94 -265 -228 -265c-116 0 -157 83 -157 83h-2s2 -18 2 -44v-227h-97zM170 252c0 -104 56 -180 145 -180c82 0 144 72 144 181c0 107 -57 181 -142 181
c-77 0 -147 -51 -147 -182z" />
    <glyph glyph-name="ydieresis" unicode="&#xff;" horiz-adv-x="510" 
d="M5 -179l34 74s28 -21 59 -21c39 0 72 28 91 74l25 58l-212 500h109l127 -331c10 -26 19 -61 19 -61h2s8 34 17 60l123 332h105l-237 -597c-31 -78 -93 -119 -164 -119c-57 0 -98 31 -98 31zM302 605v101h80v-101h-80zM135 605v101h80v-101h-80z" />
    <glyph glyph-name="Amacron" unicode="&#x100;" horiz-adv-x="628" 
d="M517 0l-71 203h-266l-70 -203h-102l254 706h104l254 -706h-103zM315 609h-2s-16 -64 -28 -100l-79 -224h214l-78 224c-12 36 -27 100 -27 100zM187 784v70h255v-70h-255z" />
    <glyph glyph-name="amacron" unicode="&#x101;" horiz-adv-x="528" 
d="M35 142c0 167 220 174 305 174h22v9c0 83 -47 111 -111 111c-78 0 -141 -49 -141 -49l-40 71s73 60 189 60c128 0 200 -70 200 -198v-320h-90v48c0 23 2 40 2 40h-2s-41 -100 -162 -100c-87 0 -172 53 -172 154zM133 147c0 -41 32 -81 95 -81c82 0 135 86 135 161v16h-25
c-73 0 -205 -5 -205 -96zM135 608v70h255v-70h-255z" />
    <glyph glyph-name="Abreve" unicode="&#x102;" horiz-adv-x="628" 
d="M517 0l-71 203h-266l-70 -203h-102l254 706h104l254 -706h-103zM315 609h-2s-16 -64 -28 -100l-79 -224h214l-78 224c-12 36 -27 100 -27 100zM314 751c-69 0 -132 40 -132 117v14h72v-13c0 -42 29 -60 60 -60c29 0 59 18 59 61v12h72v-14c0 -77 -63 -117 -131 -117z" />
    <glyph glyph-name="abreve" unicode="&#x103;" horiz-adv-x="528" 
d="M35 142c0 167 220 174 305 174h22v9c0 83 -47 111 -111 111c-78 0 -141 -49 -141 -49l-40 71s73 60 189 60c128 0 200 -70 200 -198v-320h-90v48c0 23 2 40 2 40h-2s-41 -100 -162 -100c-87 0 -172 53 -172 154zM133 147c0 -41 32 -81 95 -81c82 0 135 86 135 161v16h-25
c-73 0 -205 -5 -205 -96zM262 575c-69 0 -132 40 -132 117v14h72v-13c0 -42 29 -60 60 -60c29 0 59 18 59 61v12h72v-14c0 -77 -63 -117 -131 -117z" />
    <glyph glyph-name="Aogonek" unicode="&#x104;" horiz-adv-x="628" 
d="M517 0l-71 203h-266l-70 -203h-102l254 706h104l254 -706c-20 -17 -64 -55 -64 -89c0 -38 55 -43 55 -43l-23 -75s-116 9 -116 95c0 52 45 91 69 110v2h-24zM315 609h-2s-16 -64 -28 -100l-79 -224h214l-78 224c-12 36 -27 100 -27 100z" />
    <glyph glyph-name="aogonek" unicode="&#x105;" horiz-adv-x="528" 
d="M311 -112c0 45 33 80 58 101v59c0 23 2 40 2 40h-2s-41 -100 -162 -100c-87 0 -172 53 -172 154c0 167 220 174 305 174h22v9c0 83 -47 111 -111 111c-78 0 -141 -49 -141 -49l-40 71s73 60 189 60c128 0 200 -70 200 -198v-320c-20 -17 -64 -55 -64 -89
c0 -38 55 -43 55 -43l-23 -75s-116 9 -116 95zM133 147c0 -41 32 -81 95 -81c82 0 135 86 135 161v16h-25c-73 0 -205 -5 -205 -96z" />
    <glyph glyph-name="Cacute" unicode="&#x106;" horiz-adv-x="722" 
d="M48 357c0 205 154 361 359 361c170 0 257 -93 257 -93l-49 -74s-82 77 -204 77c-158 0 -261 -120 -261 -270c0 -151 105 -279 262 -279c133 0 218 92 218 92l53 -71s-97 -112 -274 -112c-212 0 -361 162 -361 369zM356 755l73 127h104l-96 -127h-81z" />
    <glyph glyph-name="cacute" unicode="&#x107;" horiz-adv-x="547" 
d="M40 253c0 150 112 265 271 265c127 0 190 -74 190 -74l-46 -68s-54 58 -140 58c-102 0 -176 -76 -176 -180c0 -103 74 -182 179 -182c94 0 156 68 156 68l39 -71s-70 -81 -202 -81c-159 0 -271 113 -271 265zM249 579l73 127h104l-96 -127h-81z" />
    <glyph glyph-name="Ccircumflex" unicode="&#x108;" horiz-adv-x="722" 
d="M48 357c0 205 154 361 359 361c170 0 257 -93 257 -93l-49 -74s-82 77 -204 77c-158 0 -261 -120 -261 -270c0 -151 105 -279 262 -279c133 0 218 92 218 92l53 -71s-97 -112 -274 -112c-212 0 -361 162 -361 369zM261 755l88 127h101l88 -127h-85l-53 80h-2l-52 -80h-85
z" />
    <glyph glyph-name="ccircumflex" unicode="&#x109;" horiz-adv-x="547" 
d="M40 253c0 150 112 265 271 265c127 0 190 -74 190 -74l-46 -68s-54 58 -140 58c-102 0 -176 -76 -176 -180c0 -103 74 -182 179 -182c94 0 156 68 156 68l39 -71s-70 -81 -202 -81c-159 0 -271 113 -271 265zM154 579l88 127h101l88 -127h-85l-53 80h-2l-52 -80h-85z" />
    <glyph glyph-name="Cdotaccent" unicode="&#x10a;" horiz-adv-x="722" 
d="M48 357c0 205 154 361 359 361c170 0 257 -93 257 -93l-49 -74s-82 77 -204 77c-158 0 -261 -120 -261 -270c0 -151 105 -279 262 -279c133 0 218 92 218 92l53 -71s-97 -112 -274 -112c-212 0 -361 162 -361 369zM356 784v98h87v-98h-87z" />
    <glyph glyph-name="cdotaccent" unicode="&#x10b;" horiz-adv-x="547" 
d="M40 253c0 150 112 265 271 265c127 0 190 -74 190 -74l-46 -68s-54 58 -140 58c-102 0 -176 -76 -176 -180c0 -103 74 -182 179 -182c94 0 156 68 156 68l39 -71s-70 -81 -202 -81c-159 0 -271 113 -271 265zM249 608v98h87v-98h-87z" />
    <glyph glyph-name="Ccaron" unicode="&#x10c;" horiz-adv-x="722" 
d="M48 357c0 205 154 361 359 361c170 0 257 -93 257 -93l-49 -74s-82 77 -204 77c-158 0 -261 -120 -261 -270c0 -151 105 -279 262 -279c133 0 218 92 218 92l53 -71s-97 -112 -274 -112c-212 0 -361 162 -361 369zM349 755l-88 127h85l52 -81h2l53 81h85l-88 -127h-101z
" />
    <glyph glyph-name="ccaron" unicode="&#x10d;" horiz-adv-x="547" 
d="M40 253c0 150 112 265 271 265c127 0 190 -74 190 -74l-46 -68s-54 58 -140 58c-102 0 -176 -76 -176 -180c0 -103 74 -182 179 -182c94 0 156 68 156 68l39 -71s-70 -81 -202 -81c-159 0 -271 113 -271 265zM242 579l-88 127h85l52 -81h2l53 81h85l-88 -127h-101z" />
    <glyph glyph-name="Dcaron" unicode="&#x10e;" horiz-adv-x="740" 
d="M96 0v706h234c216 0 358 -129 358 -352c0 -224 -142 -354 -358 -354h-234zM195 86h128c159 0 263 94 263 268c0 173 -105 266 -263 266h-128v-534zM294 755l-88 127h85l52 -81h2l53 81h85l-88 -127h-101z" />
    <glyph glyph-name="dcaron" unicode="&#x10f;" horiz-adv-x="631" 
d="M43 253c0 161 95 265 229 265c117 0 156 -80 156 -80h2s-2 15 -2 34v234h97v-706h-92v48c0 20 1 34 1 34h-2s-41 -94 -166 -94c-137 0 -223 108 -223 265zM142 253c0 -110 59 -181 143 -181c75 0 146 53 146 182c0 90 -47 180 -143 180c-80 0 -146 -66 -146 -181z
M583 706h85c5 -19 7 -35 7 -51c0 -32 -9 -60 -25 -94h-74c11 31 19 57 19 84c0 18 -3 38 -12 61z" />
    <glyph glyph-name="Dcroat" unicode="&#x110;" horiz-adv-x="759" 
d="M115 0v312h-59v82h59v312h234c216 0 358 -129 358 -352c0 -224 -142 -354 -358 -354h-234zM214 86h128c159 0 263 94 263 268c0 173 -105 266 -263 266h-128v-226h149v-82h-149v-226z" />
    <glyph glyph-name="dcroat" unicode="&#x111;" horiz-adv-x="601" 
d="M298 563v63h130v80h97v-80h76v-63h-76v-563h-92v48c0 20 1 34 1 34h-2s-41 -94 -166 -94c-137 0 -223 108 -223 265c0 161 95 265 229 265c117 0 156 -80 156 -80h2s-2 15 -2 34v91h-130zM142 253c0 -110 59 -181 143 -181c75 0 146 53 146 182c0 90 -47 180 -143 180
c-80 0 -146 -66 -146 -181z" />
    <glyph glyph-name="Emacron" unicode="&#x112;" horiz-adv-x="573" 
d="M96 0v706h410v-86h-311v-221h253v-86h-253v-227h328v-86h-427zM185 784v70h255v-70h-255z" />
    <glyph glyph-name="emacron" unicode="&#x113;" horiz-adv-x="555" 
d="M41 253c0 161 109 265 253 265c143 0 219 -106 219 -237c0 -13 -3 -42 -3 -42h-369c5 -111 84 -167 174 -167c87 0 150 59 150 59l40 -71s-75 -72 -196 -72c-159 0 -268 115 -268 265zM144 312h270c-3 87 -57 129 -122 129c-74 0 -134 -46 -148 -129zM167 608v70h255v-70
h-255z" />
    <glyph glyph-name="Ebreve" unicode="&#x114;" horiz-adv-x="573" 
d="M96 0v706h410v-86h-311v-221h253v-86h-253v-227h328v-86h-427zM312 751c-69 0 -132 40 -132 117v14h72v-13c0 -42 29 -60 60 -60c29 0 59 18 59 61v12h72v-14c0 -77 -63 -117 -131 -117z" />
    <glyph glyph-name="ebreve" unicode="&#x115;" horiz-adv-x="555" 
d="M41 253c0 161 109 265 253 265c143 0 219 -106 219 -237c0 -13 -3 -42 -3 -42h-369c5 -111 84 -167 174 -167c87 0 150 59 150 59l40 -71s-75 -72 -196 -72c-159 0 -268 115 -268 265zM144 312h270c-3 87 -57 129 -122 129c-74 0 -134 -46 -148 -129zM294 575
c-69 0 -132 40 -132 117v14h72v-13c0 -42 29 -60 60 -60c29 0 59 18 59 61v12h72v-14c0 -77 -63 -117 -131 -117z" />
    <glyph glyph-name="Edotaccent" unicode="&#x116;" horiz-adv-x="573" 
d="M96 0v706h410v-86h-311v-221h253v-86h-253v-227h328v-86h-427zM268 784v98h87v-98h-87z" />
    <glyph glyph-name="edotaccent" unicode="&#x117;" horiz-adv-x="555" 
d="M41 253c0 161 109 265 253 265c143 0 219 -106 219 -237c0 -13 -3 -42 -3 -42h-369c5 -111 84 -167 174 -167c87 0 150 59 150 59l40 -71s-75 -72 -196 -72c-159 0 -268 115 -268 265zM144 312h270c-3 87 -57 129 -122 129c-74 0 -134 -46 -148 -129zM250 608v98h87v-98
h-87z" />
    <glyph glyph-name="Eogonek" unicode="&#x118;" horiz-adv-x="573" 
d="M96 0v706h410v-86h-311v-221h253v-86h-253v-227h328v-86c-20 -17 -64 -55 -64 -89c0 -38 55 -43 55 -43l-23 -75s-116 9 -116 95c0 52 45 91 69 110v2h-348z" />
    <glyph glyph-name="eogonek" unicode="&#x119;" horiz-adv-x="556" 
d="M41 253c0 161 109 265 253 265c143 0 219 -106 219 -237c0 -13 -3 -42 -3 -42h-369c5 -111 84 -167 174 -167c87 0 150 59 150 59l40 -71c-39 -38 -135 -82 -135 -149c0 -38 56 -43 56 -43l-23 -75s-116 9 -116 95c0 44 29 77 56 101v2c-11 -2 -21 -3 -34 -3
c-159 0 -268 115 -268 265zM144 312h270c-3 87 -57 129 -122 129c-74 0 -134 -46 -148 -129z" />
    <glyph glyph-name="Ecaron" unicode="&#x11a;" horiz-adv-x="573" 
d="M96 0v706h410v-86h-311v-221h253v-86h-253v-227h328v-86h-427zM262 755l-88 127h85l52 -81h2l53 81h85l-88 -127h-101z" />
    <glyph glyph-name="ecaron" unicode="&#x11b;" horiz-adv-x="555" 
d="M41 253c0 161 109 265 253 265c143 0 219 -106 219 -237c0 -13 -3 -42 -3 -42h-369c5 -111 84 -167 174 -167c87 0 150 59 150 59l40 -71s-75 -72 -196 -72c-159 0 -268 115 -268 265zM144 312h270c-3 87 -57 129 -122 129c-74 0 -134 -46 -148 -129zM243 579l-88 127h85
l52 -81h2l53 81h85l-88 -127h-101z" />
    <glyph glyph-name="Gcircumflex" unicode="&#x11c;" horiz-adv-x="760" 
d="M49 354c0 204 154 364 360 364c169 0 257 -85 257 -85l-50 -74s-79 69 -199 69c-166 0 -266 -121 -266 -272c0 -164 112 -277 260 -277c122 0 200 88 200 88v102h-115v86h205v-355h-87v44c0 15 1 30 1 30h-2s-77 -86 -217 -86c-190 0 -347 150 -347 366zM260 755l88 127
h101l88 -127h-85l-53 80h-2l-52 -80h-85z" />
    <glyph glyph-name="gcircumflex" unicode="&#x11d;" horiz-adv-x="593" 
d="M121 -92c0 0 63 -34 139 -34c88 0 160 39 160 142v37c0 16 1 32 1 32h-2c-30 -50 -77 -79 -150 -79c-141 0 -226 113 -226 259c0 145 81 253 221 253c122 0 159 -75 159 -75h2s-1 7 -1 16v47h93v-485c0 -167 -127 -231 -255 -231c-61 0 -124 17 -173 42zM288 90
c70 0 134 42 134 174s-64 170 -143 170c-88 0 -138 -64 -138 -167c0 -105 56 -177 147 -177zM150 579l88 127h101l88 -127h-85l-53 80h-2l-52 -80h-85z" />
    <glyph glyph-name="Gbreve" unicode="&#x11e;" horiz-adv-x="760" 
d="M49 354c0 204 154 364 360 364c169 0 257 -85 257 -85l-50 -74s-79 69 -199 69c-166 0 -266 -121 -266 -272c0 -164 112 -277 260 -277c122 0 200 88 200 88v102h-115v86h205v-355h-87v44c0 15 1 30 1 30h-2s-77 -86 -217 -86c-190 0 -347 150 -347 366zM399 751
c-69 0 -132 40 -132 117v14h72v-13c0 -42 29 -60 60 -60c29 0 59 18 59 61v12h72v-14c0 -77 -63 -117 -131 -117z" />
    <glyph glyph-name="gbreve" unicode="&#x11f;" horiz-adv-x="593" 
d="M121 -92c0 0 63 -34 139 -34c88 0 160 39 160 142v37c0 16 1 32 1 32h-2c-30 -50 -77 -79 -150 -79c-141 0 -226 113 -226 259c0 145 81 253 221 253c122 0 159 -75 159 -75h2s-1 7 -1 16v47h93v-485c0 -167 -127 -231 -255 -231c-61 0 -124 17 -173 42zM288 90
c70 0 134 42 134 174s-64 170 -143 170c-88 0 -138 -64 -138 -167c0 -105 56 -177 147 -177zM289 575c-69 0 -132 40 -132 117v14h72v-13c0 -42 29 -60 60 -60c29 0 59 18 59 61v12h72v-14c0 -77 -63 -117 -131 -117z" />
    <glyph glyph-name="Gdotaccent" unicode="&#x120;" horiz-adv-x="760" 
d="M49 354c0 204 154 364 360 364c169 0 257 -85 257 -85l-50 -74s-79 69 -199 69c-166 0 -266 -121 -266 -272c0 -164 112 -277 260 -277c122 0 200 88 200 88v102h-115v86h205v-355h-87v44c0 15 1 30 1 30h-2s-77 -86 -217 -86c-190 0 -347 150 -347 366zM355 784v98h87
v-98h-87z" />
    <glyph glyph-name="gdotaccent" unicode="&#x121;" horiz-adv-x="593" 
d="M121 -92c0 0 63 -34 139 -34c88 0 160 39 160 142v37c0 16 1 32 1 32h-2c-30 -50 -77 -79 -150 -79c-141 0 -226 113 -226 259c0 145 81 253 221 253c122 0 159 -75 159 -75h2s-1 7 -1 16v47h93v-485c0 -167 -127 -231 -255 -231c-61 0 -124 17 -173 42zM288 90
c70 0 134 42 134 174s-64 170 -143 170c-88 0 -138 -64 -138 -167c0 -105 56 -177 147 -177zM245 608v98h87v-98h-87z" />
    <glyph glyph-name="Gcommaaccent" unicode="&#x122;" horiz-adv-x="760" 
d="M49 354c0 204 154 364 360 364c169 0 257 -85 257 -85l-50 -74s-79 69 -199 69c-166 0 -266 -121 -266 -272c0 -164 112 -277 260 -277c122 0 200 88 200 88v102h-115v86h205v-355h-87v44c0 15 1 30 1 30h-2s-77 -86 -217 -86c-190 0 -347 150 -347 366zM352 -59h85
c5 -19 7 -35 7 -51c0 -32 -9 -60 -25 -94h-74c11 31 19 57 19 84c0 18 -3 38 -12 61z" />
    <glyph glyph-name="gcommaaccent" unicode="&#x123;" horiz-adv-x="593" 
d="M121 -92c0 0 63 -34 139 -34c88 0 160 39 160 142v37c0 16 1 32 1 32h-2c-30 -50 -77 -79 -150 -79c-141 0 -226 113 -226 259c0 145 81 253 221 253c122 0 159 -75 159 -75h2s-1 7 -1 16v47h93v-485c0 -167 -127 -231 -255 -231c-61 0 -124 17 -173 42zM288 90
c70 0 134 42 134 174s-64 170 -143 170c-88 0 -138 -64 -138 -167c0 -105 56 -177 147 -177zM333 563h-84c-5 19 -7 35 -7 50c0 32 9 59 25 93h73c-11 -31 -19 -56 -19 -83c0 -18 3 -37 12 -60z" />
    <glyph glyph-name="Hcircumflex" unicode="&#x124;" horiz-adv-x="756" 
d="M96 0v706h99v-310h366v310h99v-706h-99v310h-366v-310h-99zM240 755l88 127h101l88 -127h-85l-53 80h-2l-52 -80h-85z" />
    <glyph glyph-name="hcircumflex" unicode="&#x125;" horiz-adv-x="603" 
d="M76 0v706h97v-259c0 -24 -2 -42 -2 -42h2c22 49 86 113 187 113c119 0 174 -65 174 -194v-324h-97v302c0 71 -15 127 -96 127c-76 0 -139 -52 -160 -125c-6 -20 -8 -43 -8 -67v-237h-97zM-14 755l88 127h101l88 -127h-85l-53 80h-2l-52 -80h-85z" />
    <glyph glyph-name="Hbar" unicode="&#x126;" horiz-adv-x="800" 
d="M118 0v514h-62v68h62v124h99v-124h366v124h99v-124h63v-68h-63v-514h-99v310h-366v-310h-99zM217 396h366v118h-366v-118z" />
    <glyph glyph-name="hbar" unicode="&#x127;" horiz-adv-x="603" 
d="M4 563v63h72v80h97v-80h133v-63h-133v-116c0 -24 -2 -42 -2 -42h2c22 49 86 113 187 113c119 0 174 -65 174 -194v-324h-97v302c0 71 -15 127 -96 127c-76 0 -139 -52 -160 -125c-6 -20 -8 -43 -8 -67v-237h-97v563h-72z" />
    <glyph glyph-name="Itilde" unicode="&#x128;" horiz-adv-x="291" 
d="M96 0v706h99v-706h-99zM-22 756c0 84 34 127 102 127c67 0 83 -68 126 -68c30 0 39 36 39 65h70c0 -83 -34 -127 -102 -127c-67 0 -83 68 -126 68c-30 0 -39 -35 -39 -65h-70z" />
    <glyph glyph-name="itilde" unicode="&#x129;" horiz-adv-x="249" 
d="M-43 580c0 84 34 127 102 127c67 0 83 -68 126 -68c30 0 39 36 39 65h70c0 -83 -34 -127 -102 -127c-67 0 -83 68 -126 68c-30 0 -39 -35 -39 -65h-70zM76 0v506h97v-506h-97z" />
    <glyph glyph-name="Imacron" unicode="&#x12a;" horiz-adv-x="291" 
d="M96 0v706h99v-706h-99zM19 784v70h255v-70h-255z" />
    <glyph glyph-name="imacron" unicode="&#x12b;" horiz-adv-x="249" 
d="M-2 608v70h255v-70h-255zM76 0v506h97v-506h-97z" />
    <glyph glyph-name="Ibreve" unicode="&#x12c;" horiz-adv-x="291" 
d="M96 0v706h99v-706h-99zM146 751c-69 0 -132 40 -132 117v14h72v-13c0 -42 29 -60 60 -60c29 0 59 18 59 61v12h72v-14c0 -77 -63 -117 -131 -117z" />
    <glyph glyph-name="ibreve" unicode="&#x12d;" horiz-adv-x="249" 
d="M126 575c-69 0 -132 40 -132 117v14h72v-13c0 -42 29 -60 60 -60c29 0 59 18 59 61v12h72v-14c0 -77 -63 -117 -131 -117zM76 0v506h97v-506h-97z" />
    <glyph glyph-name="Iogonek" unicode="&#x12e;" horiz-adv-x="291" 
d="M96 0v706h99v-706c-20 -17 -58 -55 -58 -89c0 -38 55 -43 55 -43l-23 -75s-116 9 -116 95c0 52 39 91 63 110v2h-20z" />
    <glyph glyph-name="iogonek" unicode="&#x12f;" horiz-adv-x="249" 
d="M31 -112c0 40 23 73 45 95v523h97v-506c-19 -17 -59 -55 -59 -89c0 -38 56 -43 56 -43l-23 -75s-116 9 -116 95zM75 607v99h98v-99h-98z" />
    <glyph glyph-name="Idotaccent" unicode="&#x130;" horiz-adv-x="291" 
d="M96 0v706h99v-706h-99zM102 784v98h87v-98h-87z" />
    <glyph glyph-name="dotlessi" unicode="&#x131;" horiz-adv-x="249" 
d="M76 0v506h97v-506h-97z" />
    <glyph glyph-name="IJ" unicode="&#x132;" horiz-adv-x="612" 
d="M286 -5v91c58 0 138 23 138 154v466h100v-467c0 -204 -129 -244 -238 -244zM96 0v706h99v-706h-99z" />
    <glyph glyph-name="ij" unicode="&#x133;" horiz-adv-x="499" 
d="M75 607v99h98v-99h-98zM76 0v506h97v-506h-97zM326 607v99h98v-99h-98zM327 506h96v-523c0 -169 -130 -189 -193 -189c-21 0 -34 2 -34 2v83s9 -1 22 -1c37 0 109 12 109 111v517z" />
    <glyph glyph-name="Jcircumflex" unicode="&#x134;" horiz-adv-x="537" 
d="M30 203v35h98v-30c0 -96 56 -129 112 -129c55 0 110 32 110 125v416h-178v86h277v-503c0 -153 -107 -215 -210 -215s-209 63 -209 215zM170 755l88 127h101l88 -127h-85l-53 80h-2l-52 -80h-85z" />
    <glyph glyph-name="jcircumflex" unicode="&#x135;" horiz-adv-x="248" 
d="M76 506h96v-523c0 -169 -130 -189 -193 -189c-21 0 -34 2 -34 2v83s9 -1 22 -1c37 0 109 12 109 111v517zM-13 579l88 127h94l88 -127h-82l-52 81h-2l-52 -81h-82z" />
    <glyph glyph-name="Kcommaaccent" unicode="&#x136;" horiz-adv-x="623" 
d="M96 0v706h99v-297h105l178 297h109l-205 -335v-2l218 -369h-112l-188 324h-105v-324h-99zM276 -59h85c5 -19 7 -35 7 -51c0 -32 -9 -60 -25 -94h-74c11 31 19 57 19 84c0 18 -3 38 -12 61z" />
    <glyph glyph-name="kcommaaccent" unicode="&#x137;" horiz-adv-x="526" 
d="M76 0v706h97v-386h71l138 186h110l-168 -223v-2l187 -281h-113l-152 238h-73v-238h-97zM229 -59h85c5 -19 7 -35 7 -51c0 -32 -9 -60 -25 -94h-74c11 31 19 57 19 84c0 18 -3 38 -12 61z" />
    <glyph glyph-name="kgreenlandic" unicode="&#x138;" horiz-adv-x="529" 
d="M76 0v506h97v-199h70l145 199h112l-176 -236v-2l179 -268h-116l-142 225h-72v-225h-97z" />
    <glyph glyph-name="Lacute" unicode="&#x139;" horiz-adv-x="529" 
d="M96 0v706h99v-620h316v-86h-415zM103 755l73 127h104l-96 -127h-81z" />
    <glyph glyph-name="lacute" unicode="&#x13a;" horiz-adv-x="265" 
d="M70 138v568h97v-551c0 -61 24 -72 54 -72c9 0 17 1 17 1v-86s-15 -2 -32 -2c-55 0 -136 15 -136 142zM76 755l73 127h104l-96 -127h-81z" />
    <glyph glyph-name="Lcommaaccent" unicode="&#x13b;" horiz-adv-x="529" 
d="M96 0v706h99v-620h316v-86h-415zM265 -59h85c5 -19 7 -35 7 -51c0 -32 -9 -60 -25 -94h-74c11 31 19 57 19 84c0 18 -3 38 -12 61z" />
    <glyph glyph-name="lcommaaccent" unicode="&#x13c;" horiz-adv-x="265" 
d="M70 138v568h97v-551c0 -61 24 -72 54 -72c9 0 17 1 17 1v-86s-15 -2 -32 -2c-55 0 -136 15 -136 142zM110 -59h85c5 -19 7 -35 7 -51c0 -32 -9 -60 -25 -94h-74c11 31 19 57 19 84c0 18 -3 38 -12 61z" />
    <glyph glyph-name="Lcaron" unicode="&#x13d;" horiz-adv-x="529" 
d="M96 0v706h99v-620h316v-86h-415zM280 706h85c5 -19 7 -35 7 -51c0 -32 -9 -60 -25 -94h-74c11 31 19 57 19 84c0 18 -3 38 -12 61z" />
    <glyph glyph-name="lcaron" unicode="&#x13e;" horiz-adv-x="295" 
d="M70 138v568h97v-551c0 -61 24 -72 54 -72c9 0 17 1 17 1v-86s-15 -2 -32 -2c-55 0 -136 15 -136 142zM226 706h85c5 -19 7 -35 7 -51c0 -32 -9 -60 -25 -94h-74c11 31 19 57 19 84c0 18 -3 38 -12 61z" />
    <glyph glyph-name="Ldot" unicode="&#x13f;" horiz-adv-x="529" 
d="M96 0v706h99v-620h316v-86h-415zM312 328v103h99v-103h-99z" />
    <glyph glyph-name="ldot" unicode="&#x140;" horiz-adv-x="340" 
d="M70 138v568h97v-551c0 -61 24 -72 54 -72c9 0 17 1 17 1v-86s-15 -2 -32 -2c-55 0 -136 15 -136 142zM240 328v103h99v-103h-99z" />
    <glyph glyph-name="Lslash" unicode="&#x141;" horiz-adv-x="552" 
d="M60 267v97l59 34v308h99v-252l109 63v-97l-109 -63v-271h316v-86h-415v301z" />
    <glyph glyph-name="lslash" unicode="&#x142;" horiz-adv-x="321" 
d="M36 275v97l73 42v292h97v-236l82 47v-97l-82 -47v-218c0 -61 24 -72 54 -72c9 0 17 1 17 1v-86s-15 -2 -32 -2c-55 0 -136 15 -136 142v179z" />
    <glyph glyph-name="Nacute" unicode="&#x143;" horiz-adv-x="757" 
d="M96 0v706h98l314 -459c26 -38 59 -102 59 -102h2s-7 63 -7 102v459h99v-706h-97l-315 458c-26 39 -59 103 -59 103h-2s7 -63 7 -103v-458h-99zM335 755l73 127h104l-96 -127h-81z" />
    <glyph glyph-name="nacute" unicode="&#x144;" horiz-adv-x="603" 
d="M76 0v506h94v-67c0 -20 -2 -37 -2 -37h2c20 44 80 116 190 116c119 0 174 -65 174 -194v-324h-97v302c0 71 -15 127 -96 127c-77 0 -139 -51 -160 -124c-6 -20 -8 -43 -8 -68v-237h-97zM270 579l73 127h104l-96 -127h-81z" />
    <glyph glyph-name="Ncommaaccent" unicode="&#x145;" horiz-adv-x="757" 
d="M96 0v706h98l314 -459c26 -38 59 -102 59 -102h2s-7 63 -7 102v459h99v-706h-97l-315 458c-26 39 -59 103 -59 103h-2s7 -63 7 -103v-458h-99zM334 -59h85c5 -19 7 -35 7 -51c0 -32 -9 -60 -25 -94h-74c11 31 19 57 19 84c0 18 -3 38 -12 61z" />
    <glyph glyph-name="ncommaaccent" unicode="&#x146;" horiz-adv-x="603" 
d="M76 0v506h94v-67c0 -20 -2 -37 -2 -37h2c20 44 80 116 190 116c119 0 174 -65 174 -194v-324h-97v302c0 71 -15 127 -96 127c-77 0 -139 -51 -160 -124c-6 -20 -8 -43 -8 -68v-237h-97zM259 -59h85c5 -19 7 -35 7 -51c0 -32 -9 -60 -25 -94h-74c11 31 19 57 19 84
c0 18 -3 38 -12 61z" />
    <glyph glyph-name="Ncaron" unicode="&#x147;" horiz-adv-x="757" 
d="M96 0v706h98l314 -459c26 -38 59 -102 59 -102h2s-7 63 -7 102v459h99v-706h-97l-315 458c-26 39 -59 103 -59 103h-2s7 -63 7 -103v-458h-99zM328 755l-88 127h85l52 -81h2l53 81h85l-88 -127h-101z" />
    <glyph glyph-name="ncaron" unicode="&#x148;" horiz-adv-x="603" 
d="M76 0v506h94v-67c0 -20 -2 -37 -2 -37h2c20 44 80 116 190 116c119 0 174 -65 174 -194v-324h-97v302c0 71 -15 127 -96 127c-77 0 -139 -51 -160 -124c-6 -20 -8 -43 -8 -68v-237h-97zM262 579l-88 127h85l52 -81h2l53 81h85l-88 -127h-101z" />
    <glyph glyph-name="napostrophe" unicode="&#x149;" horiz-adv-x="603" 
d="M76 0v506h94v-67c0 -20 -2 -37 -2 -37h2c20 44 80 116 190 116c119 0 174 -65 174 -194v-324h-97v302c0 71 -15 127 -96 127c-77 0 -139 -51 -160 -124c-6 -20 -8 -43 -8 -68v-237h-97zM3 706h85c5 -19 7 -35 7 -51c0 -32 -9 -60 -25 -94h-74c11 31 19 57 19 84
c0 18 -3 38 -12 61z" />
    <glyph glyph-name="Eng" unicode="&#x14a;" horiz-adv-x="756" 
d="M96 0v706h97l315 -459c26 -38 57 -103 58 -102h2s-6 63 -6 102v459h98v-679c0 -182 -124 -232 -232 -232v91c52 0 125 31 131 121l-311 451c-26 38 -58 103 -58 103h-2s6 -63 6 -103v-458h-98z" />
    <glyph glyph-name="eng" unicode="&#x14b;" horiz-adv-x="603" 
d="M76 0v506h94v-75c0 -16 -2 -29 -2 -29h2c20 44 80 116 190 116c120 0 174 -65 174 -194v-344c0 -169 -131 -189 -194 -189c-20 0 -34 2 -34 2v83s9 -1 22 -1c38 0 109 12 109 112v315c0 71 -14 127 -95 127c-78 0 -140 -51 -161 -124c-6 -20 -8 -43 -8 -68v-237h-97z" />
    <glyph glyph-name="Omacron" unicode="&#x14c;" horiz-adv-x="821" 
d="M48 358c0 203 159 360 363 360s362 -157 362 -360c0 -208 -158 -370 -362 -370s-363 162 -363 370zM150 358c0 -159 117 -279 261 -279s260 120 260 279c0 154 -116 270 -260 270s-261 -116 -261 -270zM284 784v70h255v-70h-255z" />
    <glyph glyph-name="omacron" unicode="&#x14d;" horiz-adv-x="624" 
d="M39 254c0 153 122 264 273 264s273 -111 273 -264c0 -154 -122 -266 -273 -266s-273 112 -273 266zM138 254c0 -106 79 -182 174 -182c96 0 174 76 174 182c0 105 -78 180 -174 180c-95 0 -174 -75 -174 -180zM185 608v70h255v-70h-255z" />
    <glyph glyph-name="Obreve" unicode="&#x14e;" horiz-adv-x="821" 
d="M48 358c0 203 159 360 363 360s362 -157 362 -360c0 -208 -158 -370 -362 -370s-363 162 -363 370zM150 358c0 -159 117 -279 261 -279s260 120 260 279c0 154 -116 270 -260 270s-261 -116 -261 -270zM411 751c-69 0 -132 40 -132 117v14h72v-13c0 -42 29 -60 60 -60
c29 0 59 18 59 61v12h72v-14c0 -77 -63 -117 -131 -117z" />
    <glyph glyph-name="obreve" unicode="&#x14f;" horiz-adv-x="624" 
d="M39 254c0 153 122 264 273 264s273 -111 273 -264c0 -154 -122 -266 -273 -266s-273 112 -273 266zM138 254c0 -106 79 -182 174 -182c96 0 174 76 174 182c0 105 -78 180 -174 180c-95 0 -174 -75 -174 -180zM313 575c-69 0 -132 40 -132 117v14h72v-13
c0 -42 29 -60 60 -60c29 0 59 18 59 61v12h72v-14c0 -77 -63 -117 -131 -117z" />
    <glyph glyph-name="Ohungarumlaut" unicode="&#x150;" horiz-adv-x="821" 
d="M48 358c0 203 159 360 363 360s362 -157 362 -360c0 -208 -158 -370 -362 -370s-363 162 -363 370zM150 358c0 -159 117 -279 261 -279s260 120 260 279c0 154 -116 270 -260 270s-261 -116 -261 -270zM433 755l73 127h101l-96 -127h-78zM279 755l68 127h87l-71 -127h-84
z" />
    <glyph glyph-name="ohungarumlaut" unicode="&#x151;" horiz-adv-x="624" 
d="M39 254c0 153 122 264 273 264s273 -111 273 -264c0 -154 -122 -266 -273 -266s-273 112 -273 266zM138 254c0 -106 79 -182 174 -182c96 0 174 76 174 182c0 105 -78 180 -174 180c-95 0 -174 -75 -174 -180zM335 579l73 127h101l-96 -127h-78zM181 579l68 127h87
l-71 -127h-84z" />
    <glyph glyph-name="OE" unicode="&#x152;" horiz-adv-x="960" 
d="M48 354c0 203 157 361 365 361c49 0 88 -9 123 -9h358v-86h-312v-221h254v-86h-254v-227h330v-86h-375c-35 0 -75 -9 -124 -9c-208 0 -365 159 -365 363zM150 354c0 -156 108 -277 263 -277c40 0 71 7 71 7v538s-31 8 -71 8c-155 0 -263 -122 -263 -276z" />
    <glyph glyph-name="oe" unicode="&#x153;" horiz-adv-x="1000" 
d="M40 252c0 160 123 266 270 266c100 0 175 -47 219 -120h2c40 75 111 120 208 120c143 0 219 -106 219 -237c0 -13 -3 -42 -3 -42h-369c8 -112 86 -167 174 -167c87 0 150 59 150 59l40 -71s-75 -72 -196 -72c-105 0 -180 49 -221 123h-2c-43 -75 -119 -123 -221 -123
c-147 0 -270 104 -270 264zM589 312h270c-3 86 -56 129 -121 129c-75 0 -135 -46 -149 -129zM139 252c0 -110 79 -180 173 -180s174 70 174 183c0 109 -81 179 -174 179c-94 0 -173 -72 -173 -182z" />
    <glyph glyph-name="Racute" unicode="&#x154;" horiz-adv-x="641" 
d="M96 0v706h216c74 0 105 -6 132 -16c72 -27 119 -98 119 -191c0 -90 -50 -166 -127 -191v-2s8 -9 21 -32l150 -274h-112l-149 281h-151v-281h-99zM195 367h142c77 0 125 49 125 128c0 52 -20 89 -56 109c-19 10 -42 16 -97 16h-114v-253zM265 755l73 127h104l-96 -127h-81
z" />
    <glyph glyph-name="racute" unicode="&#x155;" horiz-adv-x="375" 
d="M76 0v506h94v-88c0 -21 -2 -38 -2 -38h2c23 74 82 132 160 132c13 0 25 -2 25 -2v-96s-13 3 -28 3c-62 0 -119 -44 -142 -119c-9 -29 -12 -60 -12 -91v-207h-97zM181 579l73 127h104l-96 -127h-81z" />
    <glyph glyph-name="Rcommaaccent" unicode="&#x156;" horiz-adv-x="641" 
d="M96 0v706h216c74 0 105 -6 132 -16c72 -27 119 -98 119 -191c0 -90 -50 -166 -127 -191v-2s8 -9 21 -32l150 -274h-112l-149 281h-151v-281h-99zM195 367h142c77 0 125 49 125 128c0 52 -20 89 -56 109c-19 10 -42 16 -97 16h-114v-253zM284 -59h85c5 -19 7 -35 7 -51
c0 -32 -9 -60 -25 -94h-74c11 31 19 57 19 84c0 18 -3 38 -12 61z" />
    <glyph glyph-name="rcommaaccent" unicode="&#x157;" horiz-adv-x="375" 
d="M76 0v506h94v-88c0 -21 -2 -38 -2 -38h2c23 74 82 132 160 132c13 0 25 -2 25 -2v-96s-13 3 -28 3c-62 0 -119 -44 -142 -119c-9 -29 -12 -60 -12 -91v-207h-97zM81 -59h85c5 -19 7 -35 7 -51c0 -32 -9 -60 -25 -94h-74c11 31 19 57 19 84c0 18 -3 38 -12 61z" />
    <glyph glyph-name="Rcaron" unicode="&#x158;" horiz-adv-x="641" 
d="M96 0v706h216c74 0 105 -6 132 -16c72 -27 119 -98 119 -191c0 -90 -50 -166 -127 -191v-2s8 -9 21 -32l150 -274h-112l-149 281h-151v-281h-99zM195 367h142c77 0 125 49 125 128c0 52 -20 89 -56 109c-19 10 -42 16 -97 16h-114v-253zM258 755l-88 127h85l52 -81h2
l53 81h85l-88 -127h-101z" />
    <glyph glyph-name="rcaron" unicode="&#x159;" horiz-adv-x="375" 
d="M76 0v506h94v-88c0 -21 -2 -38 -2 -38h2c23 74 82 132 160 132c13 0 25 -2 25 -2v-96s-13 3 -28 3c-62 0 -119 -44 -142 -119c-9 -29 -12 -60 -12 -91v-207h-97zM175 579l-88 127h85l52 -81h2l53 81h85l-88 -127h-101z" />
    <glyph glyph-name="Sacute" unicode="&#x15a;" horiz-adv-x="546" 
d="M42 81l56 75s75 -76 180 -76c66 0 122 37 122 104c0 153 -342 120 -342 337c0 110 95 197 228 197c131 0 200 -71 200 -71l-45 -82s-65 61 -155 61c-75 0 -128 -47 -128 -103c0 -146 342 -107 342 -336c0 -109 -84 -199 -224 -199c-150 0 -234 93 -234 93zM232 755
l73 127h104l-96 -127h-81z" />
    <glyph glyph-name="sacute" unicode="&#x15b;" horiz-adv-x="448" 
d="M35 62l47 69s57 -59 145 -59c42 0 84 22 84 63c0 93 -260 74 -260 239c0 92 82 144 183 144c111 0 163 -56 163 -56l-39 -73s-45 45 -125 45c-42 0 -83 -18 -83 -62c0 -91 260 -71 260 -237c0 -84 -72 -147 -183 -147c-124 0 -192 74 -192 74zM185 579l73 127h104
l-96 -127h-81z" />
    <glyph glyph-name="Scircumflex" unicode="&#x15c;" horiz-adv-x="546" 
d="M42 81l56 75s75 -76 180 -76c66 0 122 37 122 104c0 153 -342 120 -342 337c0 110 95 197 228 197c131 0 200 -71 200 -71l-45 -82s-65 61 -155 61c-75 0 -128 -47 -128 -103c0 -146 342 -107 342 -336c0 -109 -84 -199 -224 -199c-150 0 -234 93 -234 93zM137 755
l88 127h101l88 -127h-85l-53 80h-2l-52 -80h-85z" />
    <glyph glyph-name="scircumflex" unicode="&#x15d;" horiz-adv-x="448" 
d="M35 62l47 69s57 -59 145 -59c42 0 84 22 84 63c0 93 -260 74 -260 239c0 92 82 144 183 144c111 0 163 -56 163 -56l-39 -73s-45 45 -125 45c-42 0 -83 -18 -83 -62c0 -91 260 -71 260 -237c0 -84 -72 -147 -183 -147c-124 0 -192 74 -192 74zM90 579l88 127h101l88 -127
h-85l-53 80h-2l-52 -80h-85z" />
    <glyph glyph-name="Scedilla" unicode="&#x15e;" horiz-adv-x="546" 
d="M42 81l56 75s75 -76 180 -76c66 0 122 37 122 104c0 153 -342 120 -342 337c0 110 95 197 228 197c131 0 200 -71 200 -71l-45 -82s-65 61 -155 61c-75 0 -128 -47 -128 -103c0 -146 342 -107 342 -336c0 -102 -74 -187 -198 -198l-8 -39c41 -5 72 -30 72 -73
c0 -62 -51 -84 -102 -84c-32 0 -55 7 -55 7v58s20 -7 42 -7c25 0 48 8 48 31c0 21 -22 31 -53 31c-9 0 -18 -1 -18 -1l20 77c-133 11 -206 92 -206 92z" />
    <glyph glyph-name="scedilla" unicode="&#x15f;" horiz-adv-x="448" 
d="M35 62l47 69s57 -59 145 -59c42 0 84 22 84 63c0 93 -260 74 -260 239c0 92 82 144 183 144c111 0 163 -56 163 -56l-39 -73s-45 45 -125 45c-42 0 -83 -18 -83 -62c0 -91 260 -71 260 -237c0 -78 -63 -138 -161 -146l-8 -39c41 -5 72 -30 72 -73c0 -62 -51 -84 -102 -84
c-32 0 -55 7 -55 7v58s20 -7 42 -7c25 0 48 8 48 31c0 21 -22 31 -53 31c-9 0 -18 -1 -18 -1l20 78c-104 10 -160 72 -160 72z" />
    <glyph glyph-name="Scaron" unicode="&#x160;" horiz-adv-x="546" 
d="M42 81l56 75s75 -76 180 -76c66 0 122 37 122 104c0 153 -342 120 -342 337c0 110 95 197 228 197c131 0 200 -71 200 -71l-45 -82s-65 61 -155 61c-75 0 -128 -47 -128 -103c0 -146 342 -107 342 -336c0 -109 -84 -199 -224 -199c-150 0 -234 93 -234 93zM225 755
l-88 127h85l52 -81h2l53 81h85l-88 -127h-101z" />
    <glyph glyph-name="scaron" unicode="&#x161;" horiz-adv-x="448" 
d="M35 62l47 69s57 -59 145 -59c42 0 84 22 84 63c0 93 -260 74 -260 239c0 92 82 144 183 144c111 0 163 -56 163 -56l-39 -73s-45 45 -125 45c-42 0 -83 -18 -83 -62c0 -91 260 -71 260 -237c0 -84 -72 -147 -183 -147c-124 0 -192 74 -192 74zM178 579l-88 127h85l52 -81
h2l53 81h85l-88 -127h-101z" />
    <glyph glyph-name="Tcommaaccent" unicode="&#x162;" horiz-adv-x="593" 
d="M247 0v620h-242v86h583v-86h-242v-620h-22l-11 -50c41 -5 72 -30 72 -73c0 -62 -51 -84 -102 -84c-32 0 -55 7 -55 7v58s20 -7 42 -7c25 0 48 8 48 31c0 21 -22 31 -53 31c-9 0 -18 -1 -18 -1l23 88h-23z" />
    <glyph glyph-name="tcommaaccent" unicode="&#x163;" horiz-adv-x="359" 
d="M98 185v236h-66v78h69v146h94v-146h122v-78h-122v-225c0 -101 71 -114 108 -114c14 0 23 2 23 2v-86s-14 -2 -34 -2c-16 0 -36 1 -57 5l-11 -51c41 -5 72 -30 72 -73c0 -62 -51 -84 -102 -84c-32 0 -55 7 -55 7v58s20 -7 42 -7c25 0 48 8 48 31c0 21 -22 31 -53 31
c-9 0 -18 -1 -18 -1l28 106c-47 24 -88 72 -88 167z" />
    <glyph glyph-name="Tcaron" unicode="&#x164;" horiz-adv-x="593" 
d="M247 0v620h-242v86h583v-86h-242v-620h-99zM246 755l-88 127h85l52 -81h2l53 81h85l-88 -127h-101z" />
    <glyph glyph-name="tcaron" unicode="&#x165;" horiz-adv-x="358" 
d="M97 185v236h-66v78h69v146h94v-146h122v-78h-122v-225c0 -101 71 -114 108 -114c14 0 23 2 23 2v-86s-14 -2 -34 -2c-65 0 -194 20 -194 189zM254 707h85c5 -19 7 -35 7 -50c0 -31 -9 -59 -25 -92h-74c11 31 19 56 19 82c0 18 -3 37 -12 60z" />
    <glyph glyph-name="Tbar" unicode="&#x166;" horiz-adv-x="616" 
d="M102 310v76h156v234h-242v86h583v-86h-242v-234h160v-76h-160v-310h-99v310h-156z" />
    <glyph glyph-name="tbar" unicode="&#x167;" horiz-adv-x="381" 
d="M40 259v68h70v94h-66v78h69v146h94v-146h122v-78h-122v-94h117v-68h-117v-67c0 -96 71 -110 108 -110c14 0 23 2 23 2v-86s-14 -2 -34 -2c-65 0 -194 20 -194 189v74h-70z" />
    <glyph glyph-name="Utilde" unicode="&#x168;" horiz-adv-x="728" 
d="M86 250v456h99v-456c0 -108 70 -171 178 -171c109 0 180 63 180 173v454h99v-456c0 -157 -113 -262 -278 -262s-278 105 -278 262zM196 756c0 84 34 127 102 127c67 0 83 -68 126 -68c30 0 39 36 39 65h70c0 -83 -34 -127 -102 -127c-67 0 -83 68 -126 68
c-30 0 -39 -35 -39 -65h-70z" />
    <glyph glyph-name="utilde" unicode="&#x169;" horiz-adv-x="598" 
d="M69 182v324h97v-302c0 -70 14 -126 95 -126c103 0 164 91 164 191v237h97v-506h-94v67c0 21 2 37 2 37h-2c-21 -50 -87 -116 -186 -116c-114 0 -173 60 -173 194zM128 580c0 84 34 127 102 127c67 0 83 -68 126 -68c30 0 39 36 39 65h70c0 -83 -34 -127 -102 -127
c-67 0 -83 68 -126 68c-30 0 -39 -35 -39 -65h-70z" />
    <glyph glyph-name="Umacron" unicode="&#x16a;" horiz-adv-x="728" 
d="M86 250v456h99v-456c0 -108 70 -171 178 -171c109 0 180 63 180 173v454h99v-456c0 -157 -113 -262 -278 -262s-278 105 -278 262zM237 784v70h255v-70h-255z" />
    <glyph glyph-name="umacron" unicode="&#x16b;" horiz-adv-x="598" 
d="M69 182v324h97v-302c0 -70 14 -126 95 -126c103 0 164 91 164 191v237h97v-506h-94v67c0 21 2 37 2 37h-2c-21 -50 -87 -116 -186 -116c-114 0 -173 60 -173 194zM169 608v70h255v-70h-255z" />
    <glyph glyph-name="Ubreve" unicode="&#x16c;" horiz-adv-x="728" 
d="M86 250v456h99v-456c0 -108 70 -171 178 -171c109 0 180 63 180 173v454h99v-456c0 -157 -113 -262 -278 -262s-278 105 -278 262zM364 751c-69 0 -132 40 -132 117v14h72v-13c0 -42 29 -60 60 -60c29 0 59 18 59 61v12h72v-14c0 -77 -63 -117 -131 -117z" />
    <glyph glyph-name="ubreve" unicode="&#x16d;" horiz-adv-x="598" 
d="M69 182v324h97v-302c0 -70 14 -126 95 -126c103 0 164 91 164 191v237h97v-506h-94v67c0 21 2 37 2 37h-2c-21 -50 -87 -116 -186 -116c-114 0 -173 60 -173 194zM296 575c-69 0 -132 40 -132 117v14h72v-13c0 -42 29 -60 60 -60c29 0 59 18 59 61v12h72v-14
c0 -77 -63 -117 -131 -117z" />
    <glyph glyph-name="Uring" unicode="&#x16e;" horiz-adv-x="728" 
d="M86 250v456h99v-456c0 -108 70 -171 178 -171c109 0 180 63 180 173v454h99v-456c0 -157 -113 -262 -278 -262s-278 105 -278 262zM364 743c-45 0 -85 28 -85 74c0 47 40 75 85 75c44 0 85 -28 85 -75c0 -46 -41 -74 -85 -74zM364 784c19 0 33 14 33 33
c0 21 -14 35 -33 35c-20 0 -33 -14 -33 -35c0 -19 13 -33 33 -33z" />
    <glyph glyph-name="uring" unicode="&#x16f;" horiz-adv-x="598" 
d="M69 182v324h97v-302c0 -70 14 -126 95 -126c103 0 164 91 164 191v237h97v-506h-94v67c0 21 2 37 2 37h-2c-21 -50 -87 -116 -186 -116c-114 0 -173 60 -173 194zM296 567c-45 0 -85 28 -85 74c0 47 40 75 85 75c44 0 85 -28 85 -75c0 -46 -41 -74 -85 -74zM296 608
c19 0 33 14 33 33c0 21 -14 35 -33 35c-20 0 -33 -14 -33 -35c0 -19 13 -33 33 -33z" />
    <glyph glyph-name="Uhungarumlaut" unicode="&#x170;" horiz-adv-x="728" 
d="M86 250v456h99v-456c0 -108 70 -171 178 -171c109 0 180 63 180 173v454h99v-456c0 -157 -113 -262 -278 -262s-278 105 -278 262zM386 755l73 127h101l-96 -127h-78zM232 755l68 127h87l-71 -127h-84z" />
    <glyph glyph-name="uhungarumlaut" unicode="&#x171;" horiz-adv-x="598" 
d="M69 182v324h97v-302c0 -70 14 -126 95 -126c103 0 164 91 164 191v237h97v-506h-94v67c0 21 2 37 2 37h-2c-21 -50 -87 -116 -186 -116c-114 0 -173 60 -173 194zM318 579l73 127h101l-96 -127h-78zM164 579l68 127h87l-71 -127h-84z" />
    <glyph glyph-name="Uogonek" unicode="&#x172;" horiz-adv-x="727" 
d="M325 -112c0 42 26 76 52 100h-14c-165 0 -277 105 -277 262v456h98v-456c0 -108 70 -171 178 -171c109 0 180 63 180 173v454h98v-456c0 -132 -71 -189 -135 -232c-51 -35 -97 -66 -97 -107c0 -38 56 -43 56 -43l-23 -75s-116 9 -116 95z" />
    <glyph glyph-name="uogonek" unicode="&#x173;" horiz-adv-x="598" 
d="M69 182v324h97v-302c0 -70 14 -126 95 -126c103 0 164 91 164 191v237h97v-506c-21 -17 -65 -55 -65 -89c0 -38 56 -43 56 -43l-23 -75s-116 9 -116 95c0 43 30 78 54 100v79c0 21 2 37 2 37h-2c-21 -50 -87 -116 -186 -116c-114 0 -173 60 -173 194z" />
    <glyph glyph-name="Wcircumflex" unicode="&#x174;" horiz-adv-x="948" 
d="M428 706h88l138 -518c10 -39 15 -75 15 -75h2s3 37 13 75l130 518h102l-185 -706h-115l-122 458c-12 45 -21 100 -21 100h-2s-9 -55 -21 -100l-122 -458h-115l-180 706h102l125 -518c9 -38 13 -75 13 -75h2s5 36 15 75zM338 755l88 127h101l88 -127h-85l-53 80h-2
l-52 -80h-85z" />
    <glyph glyph-name="wcircumflex" unicode="&#x175;" horiz-adv-x="814" 
d="M180 0l-163 506h103l105 -355c8 -26 12 -54 13 -54h2s5 28 13 54l110 354h89l109 -354c8 -26 14 -54 14 -54h2s4 28 12 54l106 355h102l-163 -506h-107l-105 325c-8 26 -14 55 -14 55h-2s-6 -29 -14 -55l-104 -325h-108zM269 579l88 127h101l88 -127h-85l-53 80h-2
l-52 -80h-85z" />
    <glyph glyph-name="Ycircumflex" unicode="&#x176;" horiz-adv-x="588" 
d="M245 0v299l-237 407h112l131 -232c22 -39 43 -89 43 -89h2s21 49 43 89l129 232h112l-236 -407v-299h-99zM156 755l88 127h101l88 -127h-85l-53 80h-2l-52 -80h-85z" />
    <glyph glyph-name="ycircumflex" unicode="&#x177;" horiz-adv-x="510" 
d="M5 -179l34 74s28 -21 59 -21c39 0 72 28 91 74l25 58l-212 500h109l127 -331c10 -26 19 -61 19 -61h2s8 34 17 60l123 332h105l-237 -597c-31 -78 -93 -119 -164 -119c-57 0 -98 31 -98 31zM119 579l88 127h101l88 -127h-85l-53 80h-2l-52 -80h-85z" />
    <glyph glyph-name="Ydieresis" unicode="&#x178;" horiz-adv-x="588" 
d="M245 0v299l-237 407h112l131 -232c22 -39 43 -89 43 -89h2s21 49 43 89l129 232h112l-236 -407v-299h-99zM335 781v101h80v-101h-80zM168 781v101h80v-101h-80z" />
    <glyph glyph-name="Zacute" unicode="&#x179;" horiz-adv-x="607" 
d="M41 0v66l340 490c27 40 51 65 51 65v2s-19 -3 -53 -3h-320v86h496v-65l-340 -491c-27 -39 -51 -64 -51 -64v-2s19 2 53 2h342v-86h-518zM270 755l73 127h104l-96 -127h-81z" />
    <glyph glyph-name="zacute" unicode="&#x17a;" horiz-adv-x="517" 
d="M39 0v56l255 320c22 27 42 47 42 47v2s-16 -2 -49 -2h-237v83h417v-56l-255 -321c-21 -26 -43 -46 -43 -46v-2s17 2 50 2h257v-83h-437zM212 579l73 127h104l-96 -127h-81z" />
    <glyph glyph-name="Zdotaccent" unicode="&#x17b;" horiz-adv-x="607" 
d="M41 0v66l340 490c27 40 51 65 51 65v2s-19 -3 -53 -3h-320v86h496v-65l-340 -491c-27 -39 -51 -64 -51 -64v-2s19 2 53 2h342v-86h-518zM270 784v98h87v-98h-87z" />
    <glyph glyph-name="zdotaccent" unicode="&#x17c;" horiz-adv-x="517" 
d="M39 0v56l255 320c22 27 42 47 42 47v2s-16 -2 -49 -2h-237v83h417v-56l-255 -321c-21 -26 -43 -46 -43 -46v-2s17 2 50 2h257v-83h-437zM211 608v98h87v-98h-87z" />
    <glyph glyph-name="Zcaron" unicode="&#x17d;" horiz-adv-x="607" 
d="M41 0v66l340 490c27 40 51 65 51 65v2s-19 -3 -53 -3h-320v86h496v-65l-340 -491c-27 -39 -51 -64 -51 -64v-2s19 2 53 2h342v-86h-518zM263 755l-88 127h85l52 -81h2l53 81h85l-88 -127h-101z" />
    <glyph glyph-name="zcaron" unicode="&#x17e;" horiz-adv-x="517" 
d="M39 0v56l255 320c22 27 42 47 42 47v2s-16 -2 -49 -2h-237v83h417v-56l-255 -321c-21 -26 -43 -46 -43 -46v-2s17 2 50 2h257v-83h-437zM204 579l-88 127h85l52 -81h2l53 81h85l-88 -127h-101z" />
    <glyph glyph-name="longs" unicode="&#x17f;" horiz-adv-x="276" 
d="M103 0v421h-63v78h63v24c0 167 127 188 191 188c22 0 37 -3 37 -3v-83s-10 2 -25 2c-38 0 -106 -13 -106 -107v-520h-97z" />
    <glyph glyph-name="florin" unicode="&#x192;" horiz-adv-x="569" 
d="M28 -21c0 0 38 -6 65 -6c37 0 106 13 115 111l23 266h-82v78h89l10 102c15 167 142 188 207 188c37 0 84 -7 84 -7v-84s-50 7 -80 7c-38 0 -106 -13 -115 -111l-9 -95h117v-78h-124l-24 -274c-15 -167 -142 -187 -206 -187c-35 0 -70 6 -70 6v84z" />
    <glyph glyph-name="Scommaaccent" unicode="&#x218;" horiz-adv-x="546" 
d="M42 81l56 75s75 -76 180 -76c66 0 122 37 122 104c0 153 -342 120 -342 337c0 110 95 197 228 197c131 0 200 -71 200 -71l-45 -82s-65 61 -155 61c-75 0 -128 -47 -128 -103c0 -146 342 -107 342 -336c0 -109 -84 -199 -224 -199c-150 0 -234 93 -234 93zM226 -59h85
c5 -19 7 -35 7 -51c0 -32 -9 -60 -25 -94h-74c11 31 19 57 19 84c0 18 -3 38 -12 61z" />
    <glyph glyph-name="scommaaccent" unicode="&#x219;" horiz-adv-x="448" 
d="M35 62l47 69s57 -59 145 -59c42 0 84 22 84 63c0 93 -260 74 -260 239c0 92 82 144 183 144c111 0 163 -56 163 -56l-39 -73s-45 45 -125 45c-42 0 -83 -18 -83 -62c0 -91 260 -71 260 -237c0 -84 -72 -147 -183 -147c-124 0 -192 74 -192 74zM181 -59h85
c5 -19 7 -35 7 -51c0 -32 -9 -60 -25 -94h-74c11 31 19 57 19 84c0 18 -3 38 -12 61z" />
    <glyph glyph-name="uni021A" unicode="&#x21a;" horiz-adv-x="593" 
d="M247 0v620h-242v86h583v-86h-242v-620h-99zM250 -59h85c5 -19 7 -35 7 -51c0 -32 -9 -60 -25 -94h-74c11 31 19 57 19 84c0 18 -3 38 -12 61z" />
    <glyph glyph-name="uni021B" unicode="&#x21b;" horiz-adv-x="358" 
d="M97 185v236h-66v78h69v146h94v-146h122v-78h-122v-225c0 -101 71 -114 108 -114c14 0 23 2 23 2v-86s-14 -2 -34 -2c-65 0 -194 20 -194 189zM174 -59h85c5 -19 7 -35 7 -51c0 -32 -9 -60 -25 -94h-74c11 31 19 57 19 84c0 18 -3 38 -12 61z" />
    <glyph glyph-name="circumflex" unicode="&#x2c6;" horiz-adv-x="499" 
d="M111 755l88 127h101l88 -127h-85l-53 80h-2l-52 -80h-85z" />
    <glyph glyph-name="caron" unicode="&#x2c7;" horiz-adv-x="499" 
d="M199 755l-88 127h85l52 -81h2l53 81h85l-88 -127h-101z" />
    <glyph glyph-name="breve" unicode="&#x2d8;" horiz-adv-x="499" 
d="M250 751c-69 0 -132 40 -132 117v14h72v-13c0 -42 29 -60 60 -60c29 0 59 18 59 61v12h72v-14c0 -77 -63 -117 -131 -117z" />
    <glyph glyph-name="dotaccent" unicode="&#x2d9;" horiz-adv-x="500" 
d="M206 784v98h87v-98h-87z" />
    <glyph glyph-name="ring" unicode="&#x2da;" horiz-adv-x="500" 
d="M250 743c-45 0 -85 28 -85 74c0 47 40 75 85 75c44 0 85 -28 85 -75c0 -46 -41 -74 -85 -74zM250 784c19 0 33 14 33 33c0 21 -14 35 -33 35c-20 0 -33 -14 -33 -35c0 -19 13 -33 33 -33z" />
    <glyph glyph-name="ogonek" unicode="&#x2db;" horiz-adv-x="499" 
d="M170 -112c0 80 99 135 99 135l61 -13s-77 -54 -77 -99c0 -38 56 -43 56 -43l-23 -75s-116 9 -116 95z" />
    <glyph glyph-name="tilde" unicode="&#x2dc;" horiz-adv-x="499" 
d="M81 756c0 84 34 127 102 127c67 0 83 -68 126 -68c30 0 39 36 39 65h70c0 -83 -34 -127 -102 -127c-67 0 -83 68 -126 68c-30 0 -39 -35 -39 -65h-70z" />
    <glyph glyph-name="hungarumlaut" unicode="&#x2dd;" horiz-adv-x="499" 
d="M240 755l73 127h101l-96 -127h-78zM86 755l68 127h87l-71 -127h-84z" />
    <glyph glyph-name="uni1E9E" unicode="&#x1e9e;" horiz-adv-x="690" 
d="M88 0v506c0 116 85 200 203 200h318v-67l-139 -203c-14 -21 -24 -33 -24 -33v-2h13c113 0 180 -100 180 -196c0 -114 -94 -205 -209 -205h-145v86h138c69 0 114 56 114 119c0 62 -37 117 -125 117h-75v69l113 169c30 44 43 61 44 61v2s-7 -3 -43 -3h-157
c-62 0 -106 -49 -106 -112v-508h-100z" />
    <glyph glyph-name="endash" unicode="&#x2013;" horiz-adv-x="706" 
d="M90 246v78h526v-78h-526z" />
    <glyph glyph-name="emdash" unicode="&#x2014;" horiz-adv-x="906" 
d="M90 246v78h726v-78h-726z" />
    <glyph glyph-name="quoteleft" unicode="&#x2018;" horiz-adv-x="227" 
d="M49 522l66 195h71l-43 -195h-94z" />
    <glyph glyph-name="quoteright" unicode="&#x2019;" horiz-adv-x="219" 
d="M51 523l43 195h94l-65 -195h-72z" />
    <glyph glyph-name="quotesinglbase" unicode="&#x201a;" horiz-adv-x="244" 
d="M42 -90l43 195h91l-65 -195h-69z" />
    <glyph glyph-name="quotedblleft" unicode="&#x201c;" horiz-adv-x="369" 
d="M190 522l66 195h72l-43 -195h-95zM49 522l66 195h72l-43 -195h-95z" />
    <glyph glyph-name="quotedblright" unicode="&#x201d;" horiz-adv-x="360" 
d="M192 523l43 195h95l-65 -195h-73zM51 523l43 195h95l-66 -195h-72z" />
    <glyph glyph-name="quotedblbase" unicode="&#x201e;" horiz-adv-x="383" 
d="M180 -90l43 195h92l-65 -195h-70zM42 -90l43 195h91l-65 -195h-69z" />
    <glyph glyph-name="dagger" unicode="&#x2020;" horiz-adv-x="422" 
d="M163 -50v479h-121v77h121v200h93v-200h124v-77h-124v-479h-93z" />
    <glyph glyph-name="daggerdbl" unicode="&#x2021;" horiz-adv-x="458" 
d="M60 171v78h121v180h-121v77h121v200h93v-200h124v-77h-124v-180h124v-78h-124v-221h-93v221h-121z" />
    <glyph glyph-name="bullet" unicode="&#x2022;" horiz-adv-x="411" 
d="M206 136c-86 0 -155 69 -155 155s69 155 155 155c85 0 154 -69 154 -155s-69 -155 -154 -155z" />
    <glyph glyph-name="ellipsis" unicode="&#x2026;" horiz-adv-x="770" 
d="M595 0v103h99v-103h-99zM335 0v103h100v-103h-100zM76 0v103h99v-103h-99z" />
    <glyph glyph-name="perthousand" unicode="&#x2030;" horiz-adv-x="1115" 
d="M199 422c-84 0 -151 66 -151 148c0 81 67 148 151 148s152 -67 152 -148c0 -82 -68 -148 -152 -148zM63 0l540 706h94l-540 -706h-94zM199 496c42 0 74 32 74 74c0 41 -32 75 -74 75s-74 -34 -74 -75c0 -42 32 -74 74 -74zM765 136c0 81 67 148 151 148s152 -67 152 -148
c0 -82 -68 -148 -152 -148s-151 66 -151 148zM410 136c0 81 67 148 152 148c83 0 152 -67 152 -148c0 -82 -69 -148 -152 -148c-85 0 -152 66 -152 148zM842 136c0 -42 32 -74 74 -74s74 32 74 74c0 41 -32 75 -74 75s-74 -34 -74 -75zM488 136c0 -42 32 -74 74 -74
c41 0 74 32 74 74c0 41 -33 75 -74 75c-42 0 -74 -34 -74 -75z" />
    <glyph glyph-name="guilsinglleft" unicode="&#x2039;" horiz-adv-x="355" 
d="M208 77l-164 205l164 206h97l-164 -206l164 -205h-97z" />
    <glyph glyph-name="guilsinglright" unicode="&#x203a;" horiz-adv-x="355" 
d="M50 77l164 205l-164 206h97l164 -206l-164 -205h-97z" />
    <glyph glyph-name="fraction" unicode="&#x2044;" horiz-adv-x="168" 
d="M-46 0h-75l336 706h75z" />
    <glyph glyph-name="Euro" unicode="&#x20ac;" horiz-adv-x="591" 
d="M38 258v63h55c-2 18 -3 50 0 72h-55v64h67c40 152 173 261 338 261c56 0 101 -12 101 -12l-24 -91s-37 11 -79 11c-112 0 -198 -67 -231 -169h281l-13 -64h-282c-4 -22 -4 -49 -1 -72h270l-13 -63h-240c31 -105 121 -176 233 -176c50 0 91 13 91 13l19 -90
s-48 -17 -112 -17c-170 0 -302 111 -339 270h-66z" />
    <glyph glyph-name="trademark" unicode="&#x2122;" horiz-adv-x="940" 
d="M435 266l35 440h69l104 -230c8 -18 14 -42 14 -42h2s6 24 13 42l104 230h70l34 -440h-75l-21 263c-1 15 1 30 1 30h-2l-95 -212h-61l-95 212h-2s2 -15 1 -30l-21 -263h-75zM175 266v373h-152v67h380v-67h-152v-373h-76z" />
    <glyph glyph-name="minus" unicode="&#x2212;" horiz-adv-x="613" 
d="M48 246v78h517v-78h-517z" />
    <glyph glyph-name="infinity" unicode="&#x221e;" horiz-adv-x="508" 
d="M254 167c-100 0 -182 82 -182 182c0 101 82 181 182 181c101 0 182 -80 182 -181c0 -100 -81 -182 -182 -182z" />
    <glyph glyph-name="approxequal" unicode="&#x2248;" horiz-adv-x="613" 
d="M98 321l-41 59c34 36 90 73 151 73c94 0 127 -70 198 -70c41 0 83 26 110 55l41 -59c-34 -35 -90 -72 -151 -72c-94 0 -127 70 -198 70c-42 0 -83 -28 -110 -56zM98 133l-41 58c34 36 90 73 151 73c94 0 127 -70 198 -70c41 0 83 26 110 55l41 -59
c-34 -35 -90 -72 -151 -72c-94 0 -127 70 -198 70c-42 0 -83 -27 -110 -55z" />
    <glyph glyph-name="notequal" unicode="&#x2260;" horiz-adv-x="613" 
d="M122 73l56 78h-110v78h162l80 111h-242v78h294l82 115l51 -35l-58 -80h108v-78h-160l-79 -111h239v-78h-292l-79 -112z" />
    <glyph glyph-name="lessequal" unicode="&#x2264;" horiz-adv-x="613" 
d="M67 252v66l466 208v-89l-358 -151v-2l358 -151v-89zM68 -95h465v-78h-465v78z" />
    <glyph glyph-name="greaterequal" unicode="&#x2265;" horiz-adv-x="613" 
d="M80 44v89l358 151v2l-358 151v89l467 -208v-66zM80 -95h465v-78h-465v78z" />
    <glyph glyph-name="commaaccent" horiz-adv-x="335" 
d="M126 -59h85c5 -19 7 -35 7 -51c0 -32 -9 -60 -25 -94h-74c11 31 19 57 19 84c0 18 -3 38 -12 61z" />
    <glyph glyph-name="apple" horiz-adv-x="1130" 
d="M168 -5v152l-126 72v278l126 71v151l265 142l134 -71l132 71l265 -142v-151l124 -71v-278l-124 -72v-152l-265 -141l-132 71l-134 -71zM208 30l238 -126l121 66l118 -66l238 126v139l114 64v249l-114 66v136l-238 126l-118 -64l-121 64l-238 -126v-136l-114 -66v-249
l114 -64v-139zM242 64v121l-99 60v225l99 58v123l215 114l110 -59l107 59l214 -114v-123l100 -58v-225l-100 -60v-121l-214 -114l-107 58l-110 -58zM438 91h79v204h206v69h-206v165h151c20 0 24 -8 24 -26v-33h73v74c0 37 -13 53 -54 53h-331v-68h58v-438z" />
    <glyph glyph-name="zero.tnum" horiz-adv-x="574" 
d="M288 -12c-188 0 -249 162 -249 366c0 203 61 364 249 364c189 0 250 -161 250 -364c0 -204 -61 -366 -250 -366zM288 79c116 0 149 121 149 275c0 153 -33 273 -149 273c-115 0 -148 -120 -148 -273c0 -154 33 -275 148 -275z" />
    <glyph glyph-name="one.tnum" horiz-adv-x="574" 
d="M97 0v86h156v456c0 22 1 44 1 44h-2s-8 -16 -34 -41l-66 -65l-60 62l169 164h88v-620h154v-86h-406z" />
    <glyph glyph-name="two.tnum" horiz-adv-x="574" 
d="M69 0c-3 19 -5 37 -5 54c0 252 346 288 346 454c0 70 -53 117 -127 117c-93 0 -143 -90 -143 -90l-73 49s64 134 223 134c130 0 223 -81 223 -203c0 -232 -337 -268 -339 -429h350v-86h-455z" />
    <glyph glyph-name="three.tnum" horiz-adv-x="574" 
d="M50 84l54 75s69 -77 171 -77c79 0 144 53 144 129c0 87 -77 130 -164 130h-49l-23 53l154 181c23 27 44 46 44 46v2s-21 -3 -60 -3h-239v86h422v-63l-192 -221c93 -10 207 -70 207 -207c0 -121 -95 -227 -240 -227c-144 0 -229 96 -229 96z" />
    <glyph glyph-name="four.tnum" horiz-adv-x="574" 
d="M21 189v62l326 455h113v-433h96v-84h-96v-189h-97v189h-342zM130 273h233v257c0 33 4 70 4 70h-2s-16 -33 -35 -58l-200 -267v-2z" />
    <glyph glyph-name="five.tnum" horiz-adv-x="574" 
d="M53 86l55 72s55 -76 155 -76c83 0 155 57 155 143c0 85 -70 145 -161 145c-69 0 -119 -35 -119 -35l-57 21l35 350h356v-86h-270l-17 -149c-1 -21 -5 -37 -5 -37h2s39 22 91 22c149 0 246 -103 246 -230c0 -136 -107 -238 -250 -238c-145 0 -216 98 -216 98z" />
    <glyph glyph-name="six.tnum" horiz-adv-x="574" 
d="M309 -12c-151 0 -264 132 -264 333c0 181 99 397 318 397c83 0 137 -29 137 -29l-32 -85s-45 23 -101 23c-130 0 -197 -120 -212 -237h2c30 40 94 67 156 67c134 0 223 -102 223 -233c0 -139 -95 -236 -227 -236zM308 79c81 0 130 63 130 145c0 86 -55 149 -145 149
c-80 0 -144 -48 -144 -99c0 -92 69 -195 159 -195z" />
    <glyph glyph-name="seven.tnum" horiz-adv-x="574" 
d="M111 0l275 556c20 40 41 65 41 65v2s-16 -3 -52 -3h-315v86h472v-68l-319 -638h-102z" />
    <glyph glyph-name="eight.tnum" horiz-adv-x="574" 
d="M40 204c0 108 94 175 113 188c-46 33 -79 76 -79 141c0 94 71 185 220 185c131 0 222 -73 222 -189c0 -94 -75 -174 -84 -184c54 -33 96 -77 96 -150c0 -110 -95 -207 -242 -207c-141 0 -246 88 -246 216zM426 198c0 76 -105 106 -200 152c-23 -16 -85 -64 -85 -140
c0 -81 70 -133 145 -133c74 0 140 48 140 121zM172 531c0 -78 94 -108 185 -147c11 11 62 65 62 139c0 65 -52 106 -126 106c-78 0 -121 -44 -121 -98z" />
    <glyph glyph-name="nine.tnum" horiz-adv-x="574" 
d="M213 -12c-84 0 -137 29 -137 29l32 86s45 -24 101 -24c130 0 197 120 212 237h-2c-29 -40 -94 -66 -156 -66c-134 0 -223 101 -223 232c0 139 95 236 227 236c150 0 264 -131 264 -333c0 -181 -99 -397 -318 -397zM283 333c80 0 144 49 144 99c0 92 -69 195 -159 195
c-82 0 -130 -63 -130 -145c0 -86 54 -149 145 -149z" />
    <glyph glyph-name="hyphen.case" horiz-adv-x="510" 
d="M109 305v86h292v-86h-292z" />
    <glyph glyph-name="parenleft.case" horiz-adv-x="340" 
d="M293 -65h-85c-72 120 -116 274 -116 435c0 144 42 277 116 395h85c-73 -122 -113 -255 -113 -396c0 -149 38 -298 113 -434z" />
    <glyph glyph-name="parenright.case" horiz-adv-x="340" 
d="M132 -65h-85c75 136 113 285 113 434c0 141 -40 274 -113 396h85c74 -118 116 -251 116 -395c0 -161 -44 -315 -116 -435z" />
    <glyph glyph-name="bracketleft.case" horiz-adv-x="351" 
d="M119 -65v830h165v-73h-80v-683h80v-74h-165z" />
    <glyph glyph-name="bracketright.case" horiz-adv-x="352" 
d="M233 765v-830h-166v74h80v683h-80v73h166z" />
    <glyph glyph-name="braceleft.case" horiz-adv-x="402" 
d="M154 107v96c0 102 -85 109 -85 109v86s85 7 85 111v84c0 158 114 174 162 174c14 0 23 -1 23 -1v-74h-14c-25 0 -86 -9 -86 -105v-103c0 -99 -81 -127 -81 -127v-2s81 -24 81 -127v-115c0 -96 61 -105 86 -105h14v-74s-9 -2 -23 -2c-48 0 -162 16 -162 175z" />
    <glyph glyph-name="braceright.case" horiz-adv-x="402" 
d="M63 8h14c25 0 86 9 86 105v115c0 103 81 127 81 127v2s-81 28 -81 127v103c0 96 -61 105 -86 105h-14v74s9 1 23 1c48 0 162 -16 162 -174v-84c0 -104 85 -111 85 -111v-86s-85 -7 -85 -109v-96c0 -159 -114 -175 -162 -175c-14 0 -23 2 -23 2v74z" />
    <glyph glyph-name="at.case" horiz-adv-x="835" 
d="M74 352c0 206 161 370 365 370c193 0 260 -98 260 -204v-283h72v-73h-273c-125 0 -207 89 -207 189c0 99 81 188 207 188h108c-2 57 -59 103 -162 103c-155 0 -273 -135 -273 -290c0 -158 114 -288 284 -288v-79c-224 0 -381 163 -381 367zM389 353
c0 -65 48 -118 116 -118h101v237h-99c-70 0 -118 -55 -118 -119z" />
    <glyph glyph-name="guillemotleft.case" horiz-adv-x="593" 
d="M428 137l-164 205l164 206h97l-164 -206l164 -205h-97zM227 137l-164 205l164 206h97l-164 -206l164 -205h-97z" />
    <glyph glyph-name="guillemotright.case" horiz-adv-x="594" 
d="M270 137l164 205l-164 206h97l164 -206l-164 -205h-97zM68 137l164 205l-164 206h97l164 -206l-164 -205h-97z" />
    <glyph glyph-name="guilsinglleft.case" horiz-adv-x="392" 
d="M227 137l-164 205l164 206h97l-164 -206l164 -205h-97z" />
    <glyph glyph-name="guilsinglright.case" horiz-adv-x="392" 
d="M68 137l164 205l-164 206h97l164 -206l-164 -205h-97z" />
    <glyph glyph-name="endash.case" horiz-adv-x="744" 
d="M109 306v78h526v-78h-526z" />
    <glyph glyph-name="emdash.case" horiz-adv-x="944" 
d="M109 306v78h726v-78h-726z" />
    <glyph glyph-name="periodcentered.case" horiz-adv-x="309" 
d="M105 294v103h99v-103h-99z" />
    <glyph glyph-name="questiondown.case" horiz-adv-x="514" 
d="M247 609v97h99v-97h-99zM72 170c0 165 177 182 177 303v39h94v-45c0 -152 -169 -175 -169 -289c0 -56 48 -100 114 -100c63 0 114 43 114 43l53 -69s-65 -64 -174 -64c-113 0 -209 71 -209 182z" />
    <glyph glyph-name="exclamdown.case" horiz-adv-x="349" 
d="M124 609v97h99v-97h-99zM124 0l7 512h87l6 -512h-100z" />
    <glyph glyph-name="bullet.case" horiz-adv-x="449" 
d="M225 198c-86 0 -155 70 -155 155c0 86 69 155 155 155c85 0 154 -69 154 -155c0 -85 -69 -155 -154 -155z" />
    <glyph glyph-name="zero.p_osf" horiz-adv-x="585" 
d="M52 272c0 143 75 286 241 286c165 0 240 -143 240 -287c0 -143 -74 -283 -240 -283c-167 0 -241 142 -241 284zM150 273c0 -100 43 -201 143 -201c99 0 142 101 142 201s-44 201 -142 201c-100 0 -143 -101 -143 -201z" />
    <glyph glyph-name="one.p_osf" horiz-adv-x="475" 
d="M64 0v83h152v306c0 27 1 59 1 59h-2s-16 -15 -39 -29l-91 -54l-44 68l183 113h86v-463h138v-83h-384z" />
    <glyph glyph-name="two.p_osf" horiz-adv-x="533" 
d="M55 0v67c173 114 308 215 308 308c0 69 -56 97 -116 97c-83 0 -151 -75 -151 -75l-52 64s80 97 216 97c121 0 202 -74 202 -170c0 -119 -98 -205 -260 -306v-2s20 3 60 3h226v-83h-433z" />
    <glyph glyph-name="three.p_osf" horiz-adv-x="516" 
d="M14 -39l50 68s62 -73 160 -73c78 0 144 48 144 123c0 87 -84 125 -163 125h-52l-22 51l145 165c23 26 44 43 44 44v1s-21 -3 -60 -3h-206v84h396v-57l-193 -212c92 -7 210 -59 210 -192c0 -122 -97 -213 -241 -213c-139 0 -212 89 -212 89z" />
    <glyph glyph-name="four.p_osf" horiz-adv-x="589" 
d="M27 33v62l310 451h115v-429h101v-84h-101v-149h-97v149h-328zM135 117h220v256c0 33 4 71 4 71h-2s-16 -37 -35 -63z" />
    <glyph glyph-name="five.p_osf" horiz-adv-x="530" 
d="M29 -32l51 66s56 -71 151 -71c77 0 156 45 156 134c0 88 -75 134 -155 134c-69 0 -120 -31 -120 -31l-55 20l35 326h344v-84h-261l-15 -136c-2 -21 -6 -35 -6 -35h2s40 19 93 19c136 0 237 -81 237 -209c0 -137 -108 -223 -248 -223s-209 90 -209 90z" />
    <glyph glyph-name="six.p_osf" horiz-adv-x="584" 
d="M59 294c0 172 96 380 313 380c84 0 137 -27 137 -27l-32 -79s-45 22 -101 22c-128 0 -196 -116 -211 -228h2c31 41 95 65 157 65c133 0 221 -93 221 -216c0 -130 -94 -223 -225 -223c-150 0 -261 118 -261 306zM161 255c0 -85 64 -183 158 -183c81 0 128 58 128 138
s-53 137 -143 137c-79 0 -143 -45 -143 -92z" />
    <glyph glyph-name="seven.p_osf" horiz-adv-x="514" 
d="M82 -116l262 519c19 39 36 60 36 60v2s-14 -2 -49 -2h-302v83h460v-64l-305 -598h-102z" />
    <glyph glyph-name="eight.p_osf" horiz-adv-x="583" 
d="M51 191c0 94 83 158 111 176c-46 31 -79 72 -79 133c0 89 71 174 214 174c127 0 217 -69 217 -178c0 -90 -74 -165 -81 -172c54 -31 95 -73 95 -141c0 -103 -93 -195 -237 -195c-136 0 -240 83 -240 203zM430 185c0 71 -101 100 -194 142c-26 -16 -87 -61 -87 -130
c0 -76 68 -125 142 -125c73 0 139 45 139 113zM178 498c0 -73 91 -101 180 -138c12 12 61 63 61 131c0 62 -51 100 -123 100c-75 0 -118 -42 -118 -93z" />
    <glyph glyph-name="nine.p_osf" horiz-adv-x="584" 
d="M107 -22c0 0 45 -22 101 -22c128 0 197 116 211 229h-2c-30 -42 -95 -66 -157 -66c-132 0 -221 94 -221 216c0 131 95 223 225 223c150 0 261 -118 261 -306c0 -172 -96 -380 -312 -380c-84 0 -138 27 -138 27zM281 199c78 0 142 45 142 93c0 84 -64 182 -158 182
c-81 0 -128 -58 -128 -138s54 -137 144 -137z" />
    <glyph glyph-name="zero.t_osf" horiz-adv-x="574" 
d="M48 272c0 143 75 286 241 286c165 0 240 -143 240 -287c0 -143 -74 -283 -240 -283c-167 0 -241 142 -241 284zM146 273c0 -100 43 -201 143 -201c99 0 142 101 142 201s-44 201 -142 201c-100 0 -143 -101 -143 -201z" />
    <glyph glyph-name="one.t_osf" horiz-adv-x="574" 
d="M121 0v83h152v306c0 27 1 59 1 59h-2s-16 -15 -39 -29l-91 -54l-44 68l183 113h86v-463h138v-83h-384z" />
    <glyph glyph-name="two.t_osf" horiz-adv-x="574" 
d="M82 0v67c173 114 308 215 308 308c0 69 -56 97 -116 97c-83 0 -151 -75 -151 -75l-52 64s80 97 216 97c121 0 202 -74 202 -170c0 -119 -98 -205 -260 -306v-2s20 3 60 3h226v-83h-433z" />
    <glyph glyph-name="three.t_osf" horiz-adv-x="574" 
d="M53 -38l50 68s62 -73 160 -73c77 0 143 48 143 123c0 87 -83 125 -162 125h-52l-22 51l145 164c22 26 43 43 43 44v1s-21 -3 -59 -3h-206v84h395v-57l-192 -211c91 -7 209 -59 209 -192c0 -122 -97 -213 -240 -213c-139 0 -212 89 -212 89z" />
    <glyph glyph-name="four.t_osf" horiz-adv-x="574" 
d="M28 33v62l310 451h115v-429h101v-84h-101v-149h-97v149h-328zM136 117h220v256c0 33 4 71 4 71h-2s-16 -37 -35 -63z" />
    <glyph glyph-name="five.t_osf" horiz-adv-x="574" 
d="M58 -32l51 66s56 -71 151 -71c77 0 156 45 156 134c0 88 -75 134 -155 134c-69 0 -120 -31 -120 -31l-55 20l35 326h344v-84h-261l-15 -136c-2 -21 -6 -35 -6 -35h2s40 19 93 19c136 0 237 -81 237 -209c0 -137 -108 -223 -248 -223s-209 90 -209 90z" />
    <glyph glyph-name="six.t_osf" horiz-adv-x="574" 
d="M45 294c0 172 96 380 313 380c84 0 137 -27 137 -27l-32 -79s-45 22 -101 22c-128 0 -196 -116 -211 -228h2c31 41 95 65 157 65c133 0 221 -93 221 -216c0 -130 -94 -223 -225 -223c-150 0 -261 118 -261 306zM147 255c0 -85 64 -183 158 -183c81 0 128 58 128 138
s-53 137 -143 137c-79 0 -143 -45 -143 -92z" />
    <glyph glyph-name="seven.t_osf" horiz-adv-x="574" 
d="M111 -116l262 519c19 39 36 60 36 60v2s-14 -2 -49 -2h-302v83h460v-64l-305 -598h-102z" />
    <glyph glyph-name="eight.t_osf" horiz-adv-x="574" 
d="M46 191c0 94 83 158 111 176c-46 31 -79 72 -79 133c0 89 71 174 214 174c127 0 217 -69 217 -178c0 -90 -74 -165 -81 -172c54 -31 95 -73 95 -141c0 -103 -93 -195 -237 -195c-136 0 -240 83 -240 203zM425 185c0 71 -101 100 -194 142c-26 -16 -87 -61 -87 -130
c0 -76 68 -125 142 -125c73 0 139 45 139 113zM173 498c0 -73 91 -101 180 -138c12 12 61 63 61 131c0 62 -51 100 -123 100c-75 0 -118 -42 -118 -93z" />
    <glyph glyph-name="nine.t_osf" horiz-adv-x="574" 
d="M112 -22c0 0 45 -22 101 -22c128 0 197 116 211 229h-2c-30 -42 -95 -66 -157 -66c-132 0 -221 94 -221 216c0 131 95 223 225 223c150 0 261 -118 261 -306c0 -172 -96 -380 -312 -380c-84 0 -138 27 -138 27zM286 199c78 0 142 45 142 93c0 84 -64 182 -158 182
c-81 0 -128 -58 -128 -138s54 -137 144 -137z" />
    <glyph glyph-name="dollar.osf" horiz-adv-x="529" 
d="M50 85l52 71s67 -80 164 -80c61 0 108 28 108 79c0 108 -300 89 -300 271c0 93 72 149 166 161v88h70v-87c101 -9 150 -61 150 -61l-41 -77s-53 53 -138 53c-57 0 -106 -22 -106 -79c0 -108 300 -83 300 -269c0 -87 -69 -153 -172 -164v-93h-70v92
c-119 14 -183 95 -183 95z" />
    <glyph glyph-name="cent.osf" horiz-adv-x="558" 
d="M53 299c0 125 84 222 210 243v84h73v-81c108 -9 168 -78 168 -78l-45 -72s-53 63 -140 63c-100 0 -169 -68 -169 -158c0 -92 69 -161 169 -161c87 0 140 64 140 64l45 -72s-60 -69 -168 -78v-80h-73v83c-126 20 -210 118 -210 243z" />
    <glyph glyph-name="sterling.osf" horiz-adv-x="622" 
d="M57 0v83h61v158h-45v68h45v88c0 111 96 193 223 193c105 0 174 -55 174 -55l-48 -72s-56 40 -124 40c-78 0 -127 -49 -127 -109v-85h216v-68h-216v-158h325v-83h-484z" />
    <glyph glyph-name="yen.osf" horiz-adv-x="621" 
d="M96 283v64h93l-139 232h112l104 -184c22 -39 43 -90 43 -90h2s21 51 43 90l104 184h112l-139 -232h95v-64h-133l-34 -57v-14h167v-63h-167v-149h-98v149h-165v63h165v14l-35 57h-130z" />
    <glyph glyph-name="florin.osf" horiz-adv-x="572" 
d="M28 -37c0 0 39 -6 66 -6c37 0 106 13 115 111l20 236h-82v78h89l10 105c15 167 142 188 206 188c38 0 84 -8 84 -8v-83s-49 7 -79 7c-38 0 -107 -13 -116 -111l-9 -98h117v-78h-124l-21 -244c-15 -167 -142 -188 -206 -188c-34 0 -70 7 -70 7v84z" />
    <glyph glyph-name="Euro.osf" horiz-adv-x="615" 
d="M57 198v59h64c-3 20 -3 41 -1 61h-63v60h73c32 115 133 212 307 212c54 0 97 -12 97 -12l-22 -80s-36 10 -76 10c-108 0 -175 -58 -203 -130h253l-13 -60h-255c-2 -20 -2 -40 1 -61h245l-12 -59h-216c30 -72 98 -127 203 -127c49 0 87 14 87 14l18 -81s-46 -16 -107 -16
c-167 0 -269 94 -304 210h-76z" />
    <glyph glyph-name="zero.numerator" 
d="M194 259c-119 0 -157 100 -157 229c0 128 38 228 157 228s158 -100 158 -228c0 -129 -39 -229 -158 -229zM194 328c63 0 82 70 82 160c0 88 -19 158 -82 158s-81 -70 -81 -158c0 -90 18 -160 81 -160z" />
    <glyph glyph-name="one.numerator" 
d="M71 269v66h93v249c0 14 2 26 2 26h-2s-4 -9 -18 -22l-35 -34l-46 49l106 103h68v-371h91v-66h-259z" />
    <glyph glyph-name="two.numerator" 
d="M50 269c-1 12 -3 25 -3 36c0 169 212 177 212 277c0 37 -30 65 -72 65c-49 0 -84 -48 -84 -48l-49 45s45 72 137 72c82 0 144 -52 144 -131c0 -146 -200 -156 -206 -250h213v-66h-292z" />
    <glyph glyph-name="three.numerator" 
d="M187 259c-101 0 -147 66 -147 66l42 53s36 -50 102 -50c42 0 83 32 83 76c0 46 -44 71 -89 71h-34l-16 38l89 103c9 11 24 24 24 24v2s-19 -3 -36 -3h-141v67h271v-48l-109 -126c60 -9 117 -48 117 -128c0 -77 -64 -145 -156 -145z" />
    <glyph glyph-name="four.numerator" 
d="M230 269v107h-208v50l201 280h81v-264h61v-66h-61v-107h-74zM104 442h126v123c0 26 3 58 3 58h-2s-14 -27 -29 -48l-98 -131v-2z" />
    <glyph glyph-name="five.numerator" 
d="M186 259c-94 0 -143 68 -143 68l45 51s32 -50 94 -50c48 0 89 34 89 82c0 47 -40 83 -90 83c-44 0 -75 -22 -75 -22l-42 16l23 219h232v-67h-170l-7 -62c-2 -20 -5 -32 -5 -32h2s23 10 56 10c89 0 152 -66 152 -145c0 -80 -64 -151 -161 -151z" />
    <glyph glyph-name="six.numerator" 
d="M206 259c-94 0 -165 79 -165 203c0 115 61 254 198 254c53 0 92 -22 92 -22l-24 -64s-33 16 -66 16c-63 0 -104 -56 -116 -125h2c19 18 52 31 80 31c88 0 146 -60 146 -143c0 -89 -61 -150 -147 -150zM206 328c46 0 72 37 72 82c0 48 -31 84 -81 84
c-42 0 -78 -27 -78 -53c0 -53 36 -113 87 -113z" />
    <glyph glyph-name="seven.numerator" 
d="M58 269l175 323c15 28 28 47 28 47v2s-19 -2 -44 -2h-171v67h302v-51l-208 -386h-82z" />
    <glyph glyph-name="eight.numerator" 
d="M36 395c0 58 48 98 70 113c-29 21 -49 49 -49 91c0 78 70 117 141 117c70 0 142 -40 142 -119c0 -58 -48 -105 -55 -112c36 -21 64 -50 64 -99c0 -76 -72 -127 -155 -127c-79 0 -158 46 -158 136zM273 389c0 46 -59 64 -116 91c-18 -14 -48 -42 -48 -82
c0 -47 42 -74 85 -74c39 0 79 26 79 65zM130 596c0 -44 49 -63 101 -85c11 11 38 42 38 82c0 38 -37 58 -72 58c-34 0 -67 -18 -67 -55z" />
    <glyph glyph-name="nine.numerator" 
d="M36 566c0 89 61 150 146 150c95 0 165 -79 165 -203c0 -115 -60 -254 -197 -254c-53 0 -93 22 -93 22l25 64s33 -16 65 -16c64 0 104 56 116 125h-2c-18 -18 -52 -31 -79 -31c-89 0 -146 61 -146 143zM111 566c0 -48 31 -85 81 -85c42 0 78 27 78 53
c0 53 -36 113 -88 113c-46 0 -71 -37 -71 -81z" />
    <glyph glyph-name="zerosuperior" unicode="&#x2070;" 
d="M194 413c-119 0 -157 100 -157 229c0 128 38 228 157 228s158 -100 158 -228c0 -129 -39 -229 -158 -229zM194 482c63 0 82 70 82 160c0 88 -19 158 -82 158s-81 -70 -81 -158c0 -90 18 -160 81 -160z" />
    <glyph glyph-name="foursuperior" unicode="&#x2074;" 
d="M230 423v107h-208v50l201 280h81v-264h61v-66h-61v-107h-74zM104 596h126v123c0 26 3 58 3 58h-2s-14 -27 -29 -48l-98 -131v-2z" />
    <glyph glyph-name="fivesuperior" unicode="&#x2075;" 
d="M186 413c-94 0 -143 68 -143 68l45 51s32 -50 94 -50c48 0 89 34 89 82c0 47 -40 83 -90 83c-44 0 -75 -22 -75 -22l-42 16l23 219h232v-67h-170l-7 -62c-2 -20 -5 -32 -5 -32h2s23 10 56 10c89 0 152 -66 152 -145c0 -80 -64 -151 -161 -151z" />
    <glyph glyph-name="sixsuperior" unicode="&#x2076;" 
d="M206 413c-94 0 -165 79 -165 203c0 115 61 254 198 254c53 0 92 -22 92 -22l-24 -64s-33 16 -66 16c-63 0 -104 -56 -116 -125h2c19 18 52 31 80 31c88 0 146 -60 146 -143c0 -89 -61 -150 -147 -150zM206 482c46 0 72 37 72 82c0 48 -31 84 -81 84
c-42 0 -78 -27 -78 -53c0 -53 36 -113 87 -113z" />
    <glyph glyph-name="sevensuperior" unicode="&#x2077;" 
d="M58 423l175 323c15 28 28 47 28 47v2s-19 -2 -44 -2h-171v67h302v-51l-208 -386h-82z" />
    <glyph glyph-name="eightsuperior" unicode="&#x2078;" 
d="M36 549c0 58 48 98 70 113c-29 21 -49 49 -49 91c0 78 70 117 141 117c70 0 142 -40 142 -119c0 -58 -48 -105 -55 -112c36 -21 64 -50 64 -99c0 -76 -72 -127 -155 -127c-79 0 -158 46 -158 136zM273 543c0 46 -59 64 -116 91c-18 -14 -48 -42 -48 -82
c0 -47 42 -74 85 -74c39 0 79 26 79 65zM130 750c0 -44 49 -63 101 -85c11 11 38 42 38 82c0 38 -37 58 -72 58c-34 0 -67 -18 -67 -55z" />
    <glyph glyph-name="ninesuperior" unicode="&#x2079;" 
d="M36 720c0 89 61 150 146 150c95 0 165 -79 165 -203c0 -115 -60 -254 -197 -254c-53 0 -93 22 -93 22l25 64s33 -16 65 -16c64 0 104 56 116 125h-2c-18 -18 -52 -31 -79 -31c-89 0 -146 61 -146 143zM111 720c0 -48 31 -85 81 -85c42 0 78 27 78 53
c0 53 -36 113 -88 113c-46 0 -71 -37 -71 -81z" />
    <glyph glyph-name="zeroinferior" unicode="&#x2080;" 
d="M194 -167c-119 0 -157 100 -157 229c0 128 38 228 157 228s158 -100 158 -228c0 -129 -39 -229 -158 -229zM194 -98c63 0 82 70 82 160c0 88 -19 158 -82 158s-81 -70 -81 -158c0 -90 18 -160 81 -160z" />
    <glyph glyph-name="oneinferior" unicode="&#x2081;" 
d="M71 -157v66h93v249c0 14 2 26 2 26h-2s-4 -9 -18 -22l-35 -34l-46 49l106 103h68v-371h91v-66h-259z" />
    <glyph glyph-name="twoinferior" unicode="&#x2082;" 
d="M50 -157c-1 12 -3 25 -3 36c0 169 212 177 212 277c0 37 -30 65 -72 65c-49 0 -84 -48 -84 -48l-49 45s45 72 137 72c82 0 144 -52 144 -131c0 -146 -200 -156 -206 -250h213v-66h-292z" />
    <glyph glyph-name="threeinferior" unicode="&#x2083;" 
d="M187 -168c-101 0 -147 66 -147 66l42 53s36 -50 102 -50c42 0 83 32 83 76c0 46 -44 71 -89 71h-34l-16 38l89 103c9 11 24 24 24 24v2s-19 -3 -36 -3h-141v67h271v-48l-109 -126c60 -9 117 -48 117 -128c0 -77 -64 -145 -156 -145z" />
    <glyph glyph-name="fourinferior" unicode="&#x2084;" 
d="M230 -157v107h-208v50l201 280h81v-264h61v-66h-61v-107h-74zM104 16h126v123c0 26 3 58 3 58h-2s-14 -27 -29 -48l-98 -131v-2z" />
    <glyph glyph-name="fiveinferior" unicode="&#x2085;" 
d="M186 -167c-94 0 -143 68 -143 68l45 51s32 -50 94 -50c48 0 89 34 89 82c0 47 -40 83 -90 83c-44 0 -75 -22 -75 -22l-42 16l23 219h232v-67h-170l-7 -62c-2 -20 -5 -32 -5 -32h2s23 10 56 10c89 0 152 -66 152 -145c0 -80 -64 -151 -161 -151z" />
    <glyph glyph-name="sixinferior" unicode="&#x2086;" 
d="M206 -167c-94 0 -165 79 -165 203c0 115 61 254 198 254c53 0 92 -22 92 -22l-24 -64s-33 16 -66 16c-63 0 -104 -56 -116 -125h2c19 18 52 31 80 31c88 0 146 -60 146 -143c0 -89 -61 -150 -147 -150zM206 -98c46 0 72 37 72 82c0 48 -31 84 -81 84
c-42 0 -78 -27 -78 -53c0 -53 36 -113 87 -113z" />
    <glyph glyph-name="seveninferior" unicode="&#x2087;" 
d="M58 -158l175 323c15 28 28 47 28 47v2s-19 -2 -44 -2h-171v67h302v-51l-208 -386h-82z" />
    <glyph glyph-name="eightinferior" unicode="&#x2088;" 
d="M36 -30c0 58 48 98 70 113c-29 21 -49 49 -49 91c0 78 70 117 141 117c70 0 142 -40 142 -119c0 -58 -48 -105 -55 -112c36 -21 64 -50 64 -99c0 -76 -72 -127 -155 -127c-79 0 -158 46 -158 136zM273 -36c0 46 -59 64 -116 91c-18 -14 -48 -42 -48 -82
c0 -47 42 -74 85 -74c39 0 79 26 79 65zM130 171c0 -44 49 -63 101 -85c11 11 38 42 38 82c0 38 -37 58 -72 58c-34 0 -67 -18 -67 -55z" />
    <glyph glyph-name="nineinferior" unicode="&#x2089;" 
d="M36 140c0 89 61 150 146 150c95 0 165 -79 165 -203c0 -115 -60 -254 -197 -254c-53 0 -93 22 -93 22l25 64s33 -16 65 -16c64 0 104 56 116 125h-2c-18 -18 -52 -31 -79 -31c-89 0 -146 61 -146 143zM111 140c0 -48 31 -85 81 -85c42 0 78 27 78 53
c0 53 -36 113 -88 113c-46 0 -71 -37 -71 -81z" />
    <glyph glyph-name="zero.denominator" 
d="M194 -10c-119 0 -157 100 -157 229c0 128 38 228 157 228s158 -100 158 -228c0 -129 -39 -229 -158 -229zM194 59c63 0 82 70 82 160c0 88 -19 158 -82 158s-81 -70 -81 -158c0 -90 18 -160 81 -160z" />
    <glyph glyph-name="one.denominator" 
d="M71 0v66h93v249c0 14 2 26 2 26h-2s-4 -9 -18 -22l-35 -34l-46 49l106 103h68v-371h91v-66h-259z" />
    <glyph glyph-name="two.denominator" 
d="M50 0c-1 12 -3 25 -3 36c0 169 212 177 212 277c0 37 -30 65 -72 65c-49 0 -84 -48 -84 -48l-49 45s45 72 137 72c82 0 144 -52 144 -131c0 -146 -200 -156 -206 -250h213v-66h-292z" />
    <glyph glyph-name="three.denominator" 
d="M187 -10c-101 0 -147 66 -147 66l42 53s36 -50 102 -50c42 0 83 32 83 76c0 46 -44 71 -89 71h-34l-16 38l89 103c9 11 24 24 24 24v2s-19 -3 -36 -3h-141v67h271v-48l-109 -126c60 -9 117 -48 117 -128c0 -77 -64 -145 -156 -145z" />
    <glyph glyph-name="four.denominator" 
d="M230 0v107h-208v50l201 280h81v-264h61v-66h-61v-107h-74zM104 173h126v123c0 26 3 58 3 58h-2s-14 -27 -29 -48l-98 -131v-2z" />
    <glyph glyph-name="five.denominator" 
d="M186 -10c-94 0 -143 68 -143 68l45 51s32 -50 94 -50c48 0 89 34 89 82c0 47 -40 83 -90 83c-44 0 -75 -22 -75 -22l-42 16l23 219h232v-67h-170l-7 -62c-2 -20 -5 -32 -5 -32h2s23 10 56 10c89 0 152 -66 152 -145c0 -80 -64 -151 -161 -151z" />
    <glyph glyph-name="six.denominator" 
d="M206 -10c-94 0 -165 79 -165 203c0 115 61 254 198 254c53 0 92 -22 92 -22l-24 -64s-33 16 -66 16c-63 0 -104 -56 -116 -125h2c19 18 52 31 80 31c88 0 146 -60 146 -143c0 -89 -61 -150 -147 -150zM206 59c46 0 72 37 72 82c0 48 -31 84 -81 84c-42 0 -78 -27 -78 -53
c0 -53 36 -113 87 -113z" />
    <glyph glyph-name="seven.denominator" 
d="M58 0l175 323c15 28 28 47 28 47v2s-19 -2 -44 -2h-171v67h302v-51l-208 -386h-82z" />
    <glyph glyph-name="eight.denominator" 
d="M36 126c0 58 48 98 70 113c-29 21 -49 49 -49 91c0 78 70 117 141 117c70 0 142 -40 142 -119c0 -58 -48 -105 -55 -112c36 -21 64 -50 64 -99c0 -76 -72 -127 -155 -127c-79 0 -158 46 -158 136zM273 120c0 46 -59 64 -116 91c-18 -14 -48 -42 -48 -82
c0 -47 42 -74 85 -74c39 0 79 26 79 65zM130 327c0 -44 49 -63 101 -85c11 11 38 42 38 82c0 38 -37 58 -72 58c-34 0 -67 -18 -67 -55z" />
    <glyph glyph-name="nine.denominator" 
d="M36 297c0 89 61 150 146 150c95 0 165 -79 165 -203c0 -115 -60 -254 -197 -254c-53 0 -93 22 -93 22l25 64s33 -16 65 -16c64 0 104 56 116 125h-2c-18 -18 -52 -31 -79 -31c-89 0 -146 61 -146 143zM111 297c0 -48 31 -85 81 -85c42 0 78 27 78 53
c0 53 -36 113 -88 113c-46 0 -71 -37 -71 -81z" />
    <glyph glyph-name="thinspace" unicode="&#x2009;" horiz-adv-x="14" 
 />
    <glyph glyph-name="uni00A0" unicode="&#xa0;" horiz-adv-x="257" 
 />
    <glyph glyph-name="uni00AD" unicode="&#xad;" horiz-adv-x="431" 
d="M70 242v86h292v-86h-292z" />
    </font>
</defs>
</svg>
