<?xml version="1.0" standalone="no"?>
<!DOCTYPE svg PUBLIC "-//W3C//DTD SVG 1.1//EN" "http://www.w3.org/Graphics/SVG/1.1/DTD/svg11.dtd" >
<svg xmlns="http://www.w3.org/2000/svg" xmlns:xlink="http://www.w3.org/1999/xlink" version="1.1">
<metadata>
Created by FontForge 20190801 at Fri Sep 12 13:03:48 2008
 By Jimmy Wärting
Spaced and kerned with iKern.
</metadata>
<defs>
<font id="MuseoSans-700" horiz-adv-x="395" >
  <font-face 
    font-family="Museo Sans 700"
    font-weight="600"
    font-stretch="normal"
    units-per-em="1000"
    panose-1="2 0 0 0 0 0 0 0 0 0"
    ascent="750"
    descent="-250"
    x-height="510"
    cap-height="710"
    bbox="-125 -210 1126 902"
    underline-thickness="50"
    underline-position="-100"
    stemh="111"
    stemv="127"
    unicode-range="U+0020-FB04"
  />
<missing-glyph horiz-adv-x="510" 
d="M5 0v700h500v-700h-500zM255 395l170 255h-340zM285 350l170 -255v510zM55 95l170 255l-170 255v-510zM85 50h340l-170 255z" />
    <glyph glyph-name="f_f" unicode="ff" horiz-adv-x="694" 
d="M443 0v409h-220v-409h-127v409h-63v101h63v15c0 167 137 189 208 189c26 0 43 -3 43 -3v-108s-11 2 -26 2c-36 0 -98 -9 -98 -83v-12h220v15c0 167 137 189 208 189c26 0 43 -3 43 -3v-108s-11 2 -26 2c-36 0 -98 -9 -98 -83v-12h109v-101h-109v-409h-127z" />
    <glyph glyph-name="fi" unicode="fi" horiz-adv-x="614" 
d="M417 0v409h-194v-409h-127v409h-63v101h63v15c0 167 137 189 208 189c26 0 43 -3 43 -3v-108s-11 2 -26 2c-36 0 -98 -9 -98 -83v-12h321v-510h-127zM417 597v113h126v-113h-126z" />
    <glyph glyph-name="fl" unicode="fl" horiz-adv-x="631" 
d="M96 0v401h-63v101h63v23c0 167 137 189 208 189c26 0 43 -3 43 -3v-108s-11 2 -26 2c-36 0 -98 -9 -98 -83v-20h109v-101h-109v-401h-127zM410 159v551h126v-532c0 -56 19 -70 52 -70c10 0 19 1 19 1v-111s-19 -3 -40 -3c-70 0 -157 18 -157 164z" />
    <glyph glyph-name="f_f_i" unicode="ffi" horiz-adv-x="961" 
d="M443 0v409h-220v-409h-127v409h-63v101h63v15c0 167 137 189 208 189c26 0 43 -3 43 -3v-108s-11 2 -26 2c-36 0 -98 -9 -98 -83v-12h220v15c0 167 137 189 208 189c26 0 43 -3 43 -3v-108s-11 2 -26 2c-36 0 -98 -9 -98 -83v-12h321v-510h-127v409h-194v-409h-127z
M764 597v113h126v-113h-126z" />
    <glyph glyph-name="f_f_l" unicode="ffl" horiz-adv-x="978" 
d="M443 0v409h-220v-409h-127v409h-63v101h63v15c0 167 137 189 208 189c26 0 43 -3 43 -3v-108s-11 2 -26 2c-36 0 -98 -9 -98 -83v-12h220v15c0 167 137 189 208 189c26 0 43 -3 43 -3v-108s-11 2 -26 2c-36 0 -98 -9 -98 -83v-12h109v-101h-109v-409h-127zM757 159v551
h126v-532c0 -56 19 -70 52 -70c10 0 19 1 19 1v-111s-19 -3 -40 -3c-70 0 -157 18 -157 164z" />
    <glyph glyph-name="f_j" unicode="fj" horiz-adv-x="614" 
d="M96 0v409h-63v101h63v15c0 167 137 189 208 189c26 0 43 -3 43 -3v-108s-11 2 -26 2c-36 0 -98 -9 -98 -83v-12h321v-525c0 -171 -143 -192 -213 -192c-24 0 -39 3 -39 3v107s9 -2 22 -2c36 0 103 11 103 94v414h-194v-409h-127zM417 597v113h126v-113h-126z" />
    <glyph glyph-name=".notdef" horiz-adv-x="510" 
d="M5 0v700h500v-700h-500zM255 395l170 255h-340zM285 350l170 -255v510zM55 95l170 255l-170 255v-510zM85 50h340l-170 255z" />
    <glyph glyph-name="space" unicode=" " horiz-adv-x="243" 
 />
    <glyph glyph-name="exclam" unicode="!" horiz-adv-x="328" 
d="M109 205l-11 505h132l-10 -505h-111zM103 0v118h123v-118h-123z" />
    <glyph glyph-name="quotedbl" unicode="&#x22;" horiz-adv-x="366" 
d="M216 514v209h94v-209h-94zM56 514v209h94v-209h-94z" />
    <glyph glyph-name="numbersign" unicode="#" horiz-adv-x="706" 
d="M123 0l32 187h-119l15 91h119l25 140h-117l15 92h118l35 200h102l-35 -200h136l35 200h102l-35 -200h121l-16 -92h-120l-25 -140h119l-15 -91h-120l-32 -187h-102l33 187h-137l-32 -187h-102zM272 278h137l25 140h-137z" />
    <glyph glyph-name="dollar" unicode="$" horiz-adv-x="570" 
d="M45 85l70 97s77 -75 177 -75c54 0 103 28 103 86c0 120 -338 108 -338 323c0 103 77 183 188 201v94h86v-92c116 -10 176 -73 176 -73l-56 -105s-68 62 -157 62c-60 0 -107 -35 -107 -85c0 -119 337 -98 337 -322c0 -102 -71 -189 -193 -205v-92h-86v92
c-129 15 -200 94 -200 94z" />
    <glyph glyph-name="percent" unicode="%" horiz-adv-x="792" 
d="M201 406c-90 0 -163 70 -163 158c0 86 73 158 163 158s164 -72 164 -158c0 -88 -74 -158 -164 -158zM63 0l545 710h117l-545 -710h-117zM201 498c37 0 67 29 67 66c0 36 -30 66 -67 66s-66 -30 -66 -66c0 -37 29 -66 66 -66zM426 145c0 86 72 158 163 158
c90 0 163 -72 163 -158c0 -87 -73 -157 -163 -157c-91 0 -163 70 -163 157zM523 146c0 -37 29 -66 66 -66s67 29 67 66c0 36 -30 66 -67 66s-66 -30 -66 -66z" />
    <glyph glyph-name="ampersand" unicode="&#x26;" horiz-adv-x="687" 
d="M45 201c0 77 46 151 121 177v2s-90 35 -90 155c0 126 101 187 224 187c45 0 93 -12 93 -12l-31 -102s-24 6 -47 6c-60 0 -109 -33 -109 -95c0 -41 23 -94 108 -94h113v92h127v-92h92v-112h-92v-84c0 -145 -95 -241 -255 -241c-154 0 -254 93 -254 213zM177 209
c0 -57 49 -103 122 -103c80 0 128 44 128 130v77h-120c-79 0 -130 -35 -130 -104z" />
    <glyph glyph-name="quotesingle" unicode="'" horiz-adv-x="208" 
d="M56 514v209h96v-209h-96z" />
    <glyph glyph-name="parenleft" unicode="(" horiz-adv-x="310" 
d="M184 -95c-74 121 -119 274 -119 438c0 144 43 278 119 398h107c-73 -123 -113 -258 -113 -399c0 -149 38 -299 113 -437h-107z" />
    <glyph glyph-name="parenright" unicode=")" horiz-adv-x="310" 
d="M126 -95h-107c74 138 113 288 113 437c0 141 -40 276 -113 399h107c76 -120 119 -254 119 -398c0 -164 -45 -317 -119 -438z" />
    <glyph glyph-name="asterisk" unicode="*" horiz-adv-x="461" 
d="M161 321l-91 66l83 100v2l-126 31l34 108l121 -49l-9 131h115l-9 -131l121 49l36 -107l-128 -32v-2l84 -99l-91 -67l-69 110h-2z" />
    <glyph glyph-name="plus" unicode="+" horiz-adv-x="633" 
d="M49 236v99h216v237h103v-237h216v-99h-216v-236h-103v236h-216z" />
    <glyph glyph-name="comma" unicode="," horiz-adv-x="265" 
d="M17 -105l67 234h125l-96 -234h-96z" />
    <glyph glyph-name="hyphen" unicode="-" horiz-adv-x="457" 
d="M78 230v111h301v-111h-301z" />
    <glyph glyph-name="period" unicode="." horiz-adv-x="257" 
d="M65 0v127h127v-127h-127z" />
    <glyph glyph-name="slash" unicode="/" horiz-adv-x="410" 
d="M27 -42l254 788h109l-255 -788h-108z" />
    <glyph glyph-name="zero" unicode="0" horiz-adv-x="629" 
d="M314 -12c-194 0 -257 164 -257 368s63 366 257 366s258 -162 258 -366s-64 -368 -258 -368zM314 106c97 0 125 110 125 250c0 138 -28 247 -125 247s-125 -109 -125 -247c0 -140 28 -250 125 -250z" />
    <glyph glyph-name="one" unicode="1" horiz-adv-x="512" 
d="M54 0v111h154v394c0 24 1 48 1 48h-2s-8 -17 -31 -40l-57 -54l-76 80l178 171h113v-599h154v-111h-434z" />
    <glyph glyph-name="two" unicode="2" horiz-adv-x="580" 
d="M56 0c-3 23 -6 43 -6 63c0 256 332 297 332 438c0 62 -48 99 -108 99c-83 0 -128 -84 -128 -84l-96 64s65 142 235 142c125 0 231 -76 231 -210c0 -228 -318 -267 -321 -401h332v-111h-471z" />
    <glyph glyph-name="three" unicode="3" horiz-adv-x="574" 
d="M35 83l66 99s67 -72 161 -72c74 0 128 45 128 106c0 75 -69 110 -152 110h-49l-29 66l130 154c28 33 51 54 51 54v2s-21 -3 -63 -3h-212v111h434v-81l-174 -201c98 -14 194 -84 194 -207c0 -121 -92 -233 -250 -233c-151 0 -235 95 -235 95z" />
    <glyph glyph-name="four" unicode="4" horiz-adv-x="621" 
d="M28 183v79l306 448h153v-420h92v-107h-92v-183h-127v183h-332zM164 290h196v220c0 35 5 74 5 74h-2s-16 -38 -35 -65l-164 -227v-2z" />
    <glyph glyph-name="five" unicode="5" horiz-adv-x="569" 
d="M43 84l66 97s59 -71 151 -71c69 0 134 46 134 121c0 74 -62 123 -143 123c-63 0 -110 -30 -110 -30l-71 26l33 360h373v-111h-262l-11 -117c-2 -19 -5 -33 -5 -33h2s33 16 76 16c157 0 250 -105 250 -233c0 -140 -108 -244 -256 -244c-150 0 -227 96 -227 96z" />
    <glyph glyph-name="six" unicode="6" horiz-adv-x="604" 
d="M327 -12c-148 0 -274 123 -274 337c0 186 107 397 327 397c90 0 145 -30 145 -30l-38 -111s-45 22 -100 22c-112 0 -171 -93 -189 -190h2c25 29 82 50 133 50c140 0 228 -109 228 -237c0 -132 -93 -238 -234 -238zM327 106c66 0 106 53 106 120c0 72 -45 131 -130 131
c-64 0 -116 -33 -116 -77c0 -89 65 -174 140 -174z" />
    <glyph glyph-name="seven" unicode="7" horiz-adv-x="544" 
d="M78 0l266 534c22 44 43 65 43 65v2s-14 -2 -49 -2h-303v111h488v-90l-311 -620h-134z" />
    <glyph glyph-name="eight" unicode="8" horiz-adv-x="611" 
d="M51 206c0 101 85 168 107 183c-43 33 -73 76 -73 139c0 98 72 194 228 194c132 0 230 -74 230 -197c0 -88 -72 -167 -79 -175c52 -33 91 -78 91 -151c0 -109 -91 -211 -250 -211c-154 0 -254 96 -254 218zM424 205c0 62 -89 90 -175 131c-23 -19 -66 -61 -66 -120
c0 -67 57 -114 122 -114c66 0 119 40 119 103zM212 525c0 -65 76 -93 157 -128c10 11 48 58 48 120c0 55 -42 90 -106 90c-65 0 -99 -36 -99 -82z" />
    <glyph glyph-name="nine" unicode="9" horiz-adv-x="604" 
d="M224 -12c-90 0 -145 30 -145 30l38 111s45 -23 99 -23c112 0 172 93 190 190h-2c-25 -29 -83 -50 -134 -50c-140 0 -227 110 -227 238c0 131 93 238 234 238c148 0 274 -123 274 -337c0 -186 -107 -397 -327 -397zM301 352c64 0 116 34 116 77c0 89 -66 174 -140 174
c-66 0 -107 -52 -107 -119c0 -72 45 -132 131 -132z" />
    <glyph glyph-name="colon" unicode=":" horiz-adv-x="288" 
d="M81 383v127h126v-127h-126zM81 0v127h126v-127h-126z" />
    <glyph glyph-name="semicolon" unicode=";" horiz-adv-x="292" 
d="M31 -105l58 234h125l-86 -234h-97zM90 383v127h126v-127h-126z" />
    <glyph glyph-name="less" unicode="&#x3c;" horiz-adv-x="556" 
d="M25 245v82l481 214v-111l-347 -143v-2l347 -143v-111z" />
    <glyph glyph-name="equal" unicode="=" horiz-adv-x="652" 
d="M82 339v98h488v-98h-488zM82 134v98h488v-98h-488z" />
    <glyph glyph-name="greater" unicode="&#x3e;" horiz-adv-x="556" 
d="M50 31v111l347 143v2l-347 143v111l481 -214v-82z" />
    <glyph glyph-name="question" unicode="?" horiz-adv-x="487" 
d="M133 205v48c0 145 165 168 165 271c0 47 -42 83 -97 83c-57 0 -107 -42 -107 -42l-70 87s69 72 188 72c113 0 218 -70 218 -188c0 -165 -174 -184 -174 -292v-39h-123zM133 0v118h123v-118h-123z" />
    <glyph glyph-name="at" unicode="@" horiz-adv-x="834" 
d="M51 240c0 208 164 373 376 373c204 0 275 -103 275 -218v-250h73v-91h-277c-135 0 -215 90 -215 186c0 95 78 183 215 183h85c-2 52 -65 88 -152 88c-145 0 -255 -129 -255 -271c0 -146 104 -268 271 -268v-99c-238 0 -396 162 -396 367zM409 243c0 -54 39 -98 97 -98h77
v196h-75c-60 0 -99 -45 -99 -98z" />
    <glyph glyph-name="A" unicode="A" horiz-adv-x="637" 
d="M503 0l-60 182h-249l-60 -182h-133l250 710h135l250 -710h-133zM320 587h-2s-16 -70 -30 -110l-63 -190h186l-63 190c-13 40 -28 110 -28 110z" />
    <glyph glyph-name="B" unicode="B" horiz-adv-x="642" 
d="M90 0v710h254c128 0 219 -66 219 -183c0 -66 -32 -123 -86 -152v-2c78 -23 115 -95 115 -167c0 -142 -114 -206 -245 -206h-257zM219 420h125c56 0 88 40 88 91s-30 88 -90 88h-123v-179zM219 111h138c66 0 103 43 103 103c0 59 -38 102 -103 102h-138v-205z" />
    <glyph glyph-name="C" unicode="C" horiz-adv-x="716" 
d="M41 358c0 206 156 364 365 364c173 0 262 -97 262 -97l-62 -96s-81 75 -194 75c-150 0 -238 -112 -238 -244c0 -135 91 -254 239 -254c123 0 206 90 206 90l68 -93s-98 -115 -279 -115c-217 0 -367 161 -367 370z" />
    <glyph glyph-name="D" unicode="D" horiz-adv-x="739" 
d="M90 0v710h242c219 0 362 -130 362 -354s-143 -356 -362 -356h-242zM219 111h106c144 0 236 85 236 245c0 158 -94 243 -236 243h-106v-488z" />
    <glyph glyph-name="E" unicode="E" horiz-adv-x="575" 
d="M90 0v710h425v-111h-296v-186h239v-111h-239v-191h312v-111h-441z" />
    <glyph glyph-name="F" unicode="F" horiz-adv-x="529" 
d="M90 0v710h408v-111h-279v-201h235v-111h-235v-287h-129z" />
    <glyph glyph-name="G" unicode="G" horiz-adv-x="760" 
d="M42 356c0 206 155 366 366 366c174 0 264 -90 264 -90l-64 -96s-76 68 -189 68c-159 0 -244 -110 -244 -244c0 -154 105 -254 238 -254c107 0 178 74 178 74v83h-109v111h225v-374h-110v34c0 15 1 30 1 30h-2s-74 -76 -206 -76c-187 0 -348 145 -348 368z" />
    <glyph glyph-name="H" unicode="H" horiz-adv-x="763" 
d="M90 0v710h129v-301h325v301h129v-710h-129v298h-325v-298h-129z" />
    <glyph glyph-name="I" unicode="I" horiz-adv-x="309" 
d="M90 0v710h129v-710h-129z" />
    <glyph glyph-name="J" unicode="J" horiz-adv-x="547" 
d="M24 210v41h128v-33c0 -84 46 -112 94 -112s91 29 91 106v387h-183v111h312v-500c0 -155 -112 -222 -222 -222c-109 0 -220 69 -220 222z" />
    <glyph glyph-name="K" unicode="K" horiz-adv-x="647" 
d="M90 0v710h129v-289h92l167 289h140l-201 -338v-2l213 -370h-145l-174 310h-92v-310h-129z" />
    <glyph glyph-name="L" unicode="L" horiz-adv-x="539" 
d="M90 0v710h129v-599h307v-111h-436z" />
    <glyph glyph-name="M" unicode="M" horiz-adv-x="878" 
d="M68 0l58 710h138l139 -351c16 -42 36 -104 36 -104h2s19 62 35 104l139 351h138l57 -710h-128l-30 397c-3 47 -1 110 -1 110h-2s-21 -69 -38 -110l-115 -275h-113l-114 275c-17 41 -39 111 -39 111h-2s2 -64 -1 -111l-30 -397h-129z" />
    <glyph glyph-name="N" unicode="N" horiz-adv-x="760" 
d="M90 0v710h129l269 -410c27 -41 59 -110 59 -110h2s-7 68 -7 110v410h128v-710h-128l-269 409c-27 41 -59 110 -59 110h-2s7 -68 7 -110v-409h-129z" />
    <glyph glyph-name="O" unicode="O" horiz-adv-x="816" 
d="M41 360c0 203 158 362 367 362s367 -159 367 -362c0 -209 -158 -372 -367 -372s-367 163 -367 372zM174 360c0 -146 104 -254 234 -254s234 108 234 254c0 140 -104 244 -234 244s-234 -104 -234 -244z" />
    <glyph glyph-name="P" unicode="P" horiz-adv-x="614" 
d="M90 0v710h274c133 0 226 -93 226 -231s-93 -234 -226 -234h-145v-245h-129zM219 357h121c75 0 119 48 119 122c0 73 -44 120 -117 120h-123v-242z" />
    <glyph glyph-name="Q" unicode="Q" horiz-adv-x="826" 
d="M41 359c0 204 158 363 366 363c210 0 368 -159 368 -363c0 -86 -31 -163 -78 -225l80 -72l-74 -82l-79 78c-59 -45 -134 -70 -217 -70c-208 0 -366 164 -366 371zM174 359c0 -145 103 -253 233 -253c43 0 90 14 124 37l-79 75l74 81l77 -77c24 39 39 87 39 137
c0 141 -103 245 -235 245c-130 0 -233 -104 -233 -245z" />
    <glyph glyph-name="R" unicode="R" horiz-adv-x="658" 
d="M90 0v710h229c77 0 112 -6 143 -20c71 -32 116 -100 116 -194c0 -85 -45 -164 -120 -194v-2s10 -10 24 -35l146 -265h-144l-141 265h-124v-265h-129zM219 377h116c69 0 112 41 112 112c0 68 -29 110 -130 110h-98v-222z" />
    <glyph glyph-name="S" unicode="S" horiz-adv-x="554" 
d="M36 85l70 97s77 -75 177 -75c54 0 103 28 103 86c0 127 -335 105 -335 323c0 118 102 206 238 206c140 0 212 -76 212 -76l-56 -105s-68 62 -157 62c-60 0 -107 -35 -107 -85c0 -126 334 -95 334 -322c0 -113 -86 -208 -234 -208c-158 0 -245 97 -245 97z" />
    <glyph glyph-name="T" unicode="T" horiz-adv-x="603" 
d="M237 0v599h-233v111h595v-111h-233v-599h-129z" />
    <glyph glyph-name="U" unicode="U" horiz-adv-x="733" 
d="M80 255v455h129v-455c0 -95 62 -149 157 -149s158 54 158 150v454h129v-455c0 -159 -115 -267 -286 -267c-172 0 -287 108 -287 267z" />
    <glyph glyph-name="V" unicode="V" horiz-adv-x="644" 
d="M258 0l-259 710h139l156 -463c14 -41 26 -104 27 -104h2c1 0 13 63 27 104l157 463h138l-259 -710h-128z" />
    <glyph glyph-name="W" unicode="W" horiz-adv-x="966" 
d="M538 710l126 -491c11 -41 12 -75 13 -75h2s3 35 12 75l117 491h133l-183 -710h-149l-109 420c-12 46 -18 93 -18 93h-2s-6 -47 -18 -93l-109 -420h-149l-178 710h133l112 -491c9 -40 12 -75 12 -75h2c1 0 2 34 13 75l128 491h112z" />
    <glyph glyph-name="X" unicode="X" horiz-adv-x="633" 
d="M17 0l221 360l-212 350h147l97 -174c23 -41 45 -87 45 -87h2s20 45 43 87l99 174h148l-214 -350l222 -360h-145l-110 191c-23 41 -44 84 -44 84h-2s-20 -43 -44 -84l-109 -191h-144z" />
    <glyph glyph-name="Y" unicode="Y" horiz-adv-x="605" 
d="M238 0v297l-236 413h146l111 -209c23 -44 42 -96 43 -95h2s20 51 43 95l110 209h146l-236 -413v-297h-129z" />
    <glyph glyph-name="Z" unicode="Z" horiz-adv-x="614" 
d="M38 0v83l315 452c28 41 52 64 52 64v2s-20 -2 -53 -2h-298v111h513v-82l-315 -453c-28 -41 -52 -64 -52 -64v-2s20 2 53 2h318v-111h-533z" />
    <glyph glyph-name="bracketleft" unicode="[" horiz-adv-x="317" 
d="M93 -95v836h197v-92h-89v-652h89v-92h-197z" />
    <glyph glyph-name="backslash" unicode="\" horiz-adv-x="411" 
d="M275 -42l-255 788h109l255 -788h-109z" />
    <glyph glyph-name="bracketright" unicode="]" horiz-adv-x="317" 
d="M27 -3h89v652h-89v92h197v-836h-197v92z" />
    <glyph glyph-name="asciicircum" unicode="^" horiz-adv-x="619" 
d="M65 245l201 465h80l201 -465h-110l-131 331l-131 -331h-110z" />
    <glyph glyph-name="underscore" unicode="_" horiz-adv-x="601" 
d="M20 0h561v-98h-561v98z" />
    <glyph glyph-name="grave" unicode="`" horiz-adv-x="493" 
d="M247 757l-104 136h131l76 -136h-103z" />
    <glyph glyph-name="a" unicode="a" horiz-adv-x="534" 
d="M27 147c0 162 219 173 302 173h17v7c0 67 -42 90 -98 90c-73 0 -140 -49 -140 -49l-48 91s79 63 200 63c134 0 212 -74 212 -203v-319h-117v42c0 20 2 36 2 36h-2c1 0 -39 -90 -155 -90c-91 0 -173 57 -173 159zM155 153c0 -34 25 -66 77 -66c67 0 115 72 115 134v12h-22
c-65 0 -170 -9 -170 -80z" />
    <glyph glyph-name="b" unicode="b" horiz-adv-x="611" 
d="M70 0v710h127v-219c0 -25 -2 -43 -2 -43h2s45 74 153 74c138 0 226 -109 226 -267c0 -162 -99 -267 -234 -267c-106 0 -152 76 -152 76h-2s2 -15 2 -35v-29h-120zM193 252c0 -79 42 -157 127 -157c70 0 128 57 128 158c0 97 -52 160 -127 160c-66 0 -128 -48 -128 -161z
" />
    <glyph glyph-name="c" unicode="c" horiz-adv-x="545" 
d="M33 255c0 145 108 267 277 267c133 0 196 -76 196 -76l-56 -87s-53 55 -133 55c-94 0 -155 -71 -155 -158c0 -86 62 -160 159 -160c86 0 150 65 150 65l49 -90s-73 -83 -210 -83c-169 0 -277 119 -277 267z" />
    <glyph glyph-name="d" unicode="d" horiz-adv-x="611" 
d="M35 255c0 162 96 267 231 267c112 0 147 -65 147 -65h2s-1 13 -1 29v224h127v-710h-120v42c0 19 2 33 2 33h-2s-43 -87 -160 -87c-138 0 -226 109 -226 267zM163 255c0 -97 52 -160 127 -160c66 0 128 48 128 161c0 79 -42 157 -127 157c-70 0 -128 -57 -128 -158z" />
    <glyph glyph-name="e" unicode="e" horiz-adv-x="554" 
d="M34 255c0 157 107 267 259 267c147 0 226 -107 226 -242c0 -15 -3 -49 -3 -49h-352c8 -89 77 -135 153 -135c82 0 147 56 147 56l49 -91s-78 -73 -205 -73c-169 0 -274 122 -274 267zM168 318h223c-2 69 -45 106 -101 106c-65 0 -110 -40 -122 -106z" />
    <glyph glyph-name="f" unicode="f" horiz-adv-x="347" 
d="M96 0v401h-63v101h63v23c0 167 137 189 208 189c26 0 43 -3 43 -3v-108s-11 2 -26 2c-36 0 -98 -9 -98 -83v-20h109v-101h-109v-401h-127z" />
    <glyph glyph-name="g" unicode="g" horiz-adv-x="604" 
d="M122 -69c0 0 64 -33 141 -33c78 0 144 33 144 124v30c0 12 2 27 2 27h-2c-30 -45 -74 -69 -142 -69c-146 0 -229 118 -229 258s79 254 226 254c111 0 151 -65 151 -65h3s-1 6 -1 14v39h119v-479c0 -175 -136 -241 -269 -241c-64 0 -132 18 -181 44zM292 117
c61 0 118 35 118 150c0 116 -57 147 -126 147c-77 0 -120 -56 -120 -142c0 -89 46 -155 128 -155z" />
    <glyph glyph-name="h" unicode="h" horiz-adv-x="613" 
d="M70 0v710h127v-246c0 -25 -2 -43 -2 -43h2c25 49 87 101 176 101c113 0 177 -59 177 -194v-328h-126v302c0 62 -16 104 -81 104c-67 0 -119 -44 -138 -106c-6 -20 -8 -42 -8 -66v-234h-127z" />
    <glyph glyph-name="i" unicode="i" horiz-adv-x="267" 
d="M70 597v113h126v-113h-126zM70 0v510h127v-510h-127z" />
    <glyph glyph-name="j" unicode="j" horiz-adv-x="267" 
d="M70 597v113h126v-113h-126zM70 510h127v-525c0 -171 -143 -192 -213 -192c-24 0 -39 3 -39 3v107s9 -2 22 -2c36 0 103 11 103 94v515z" />
    <glyph glyph-name="k" unicode="k" horiz-adv-x="552" 
d="M70 0v710h127v-380h63l123 180h141l-161 -228v-2l181 -280h-146l-135 223h-66v-223h-127z" />
    <glyph glyph-name="l" unicode="l" horiz-adv-x="284" 
d="M63 159v551h126v-532c0 -56 19 -70 52 -70c10 0 19 1 19 1v-111s-19 -3 -40 -3c-70 0 -157 18 -157 164z" />
    <glyph glyph-name="m" unicode="m" horiz-adv-x="913" 
d="M70 0v510h122v-59c0 -19 -2 -35 -2 -35h2c25 50 86 106 166 106c78 0 128 -36 149 -105h2c28 55 94 105 174 105c106 0 167 -60 167 -194v-328h-127v304c0 58 -11 102 -70 102c-65 0 -108 -52 -123 -116c-5 -20 -6 -42 -6 -66v-224h-127v304c0 55 -9 102 -69 102
c-66 0 -109 -52 -125 -117c-5 -19 -6 -42 -6 -65v-224h-127z" />
    <glyph glyph-name="n" unicode="n" horiz-adv-x="613" 
d="M70 0v510h122v-59c0 -19 -2 -35 -2 -35h2c22 43 78 106 181 106c113 0 177 -59 177 -194v-328h-126v302c0 62 -16 104 -81 104c-68 0 -118 -43 -137 -104c-7 -21 -9 -44 -9 -68v-234h-127z" />
    <glyph glyph-name="o" unicode="o" horiz-adv-x="625" 
d="M32 255c0 156 125 267 280 267c156 0 281 -111 281 -267c0 -157 -125 -267 -280 -267c-156 0 -281 110 -281 267zM161 255c0 -95 69 -159 152 -159c82 0 151 64 151 159c0 94 -69 159 -151 159c-83 0 -152 -65 -152 -159z" />
    <glyph glyph-name="p" unicode="p" horiz-adv-x="611" 
d="M70 -200v710h116v-37c0 -19 -2 -35 -2 -35h2s44 84 164 84c138 0 226 -109 226 -267c0 -162 -99 -267 -233 -267c-101 0 -146 70 -146 70h-2s2 -18 2 -44v-214h-127zM193 252c0 -79 43 -157 127 -157c70 0 128 57 128 158c0 97 -52 160 -127 160
c-66 0 -128 -48 -128 -161z" />
    <glyph glyph-name="q" unicode="q" horiz-adv-x="611" 
d="M35 255c0 162 96 267 231 267c112 0 155 -74 155 -74h2s-2 13 -2 33v29h120v-710h-127v220c0 26 2 44 2 44h-2s-43 -76 -153 -76c-138 0 -226 109 -226 267zM163 255c0 -97 52 -160 127 -160c66 0 128 48 128 161c0 79 -42 157 -127 157c-70 0 -128 -57 -128 -158z" />
    <glyph glyph-name="r" unicode="r" horiz-adv-x="393" 
d="M70 0v510h122v-88c0 -19 -2 -36 -2 -36h2c23 73 84 131 162 131c12 0 23 -2 23 -2v-125s-13 2 -30 2c-54 0 -115 -31 -139 -107c-8 -25 -11 -53 -11 -83v-202h-127z" />
    <glyph glyph-name="s" unicode="s" horiz-adv-x="452" 
d="M27 63l58 89s56 -56 139 -56c36 0 67 16 67 46c0 76 -248 66 -248 230c0 95 85 150 195 150c115 0 171 -58 171 -58l-47 -94s-47 44 -125 44c-33 0 -65 -14 -65 -46c0 -72 248 -63 248 -227c0 -85 -74 -153 -195 -153c-127 0 -198 75 -198 75z" />
    <glyph glyph-name="t" unicode="t" horiz-adv-x="377" 
d="M92 187v214h-66v101h69v147h124v-147h116v-101h-116v-198c0 -84 66 -96 101 -96c14 0 23 2 23 2v-111s-15 -3 -39 -3c-71 0 -212 21 -212 192z" />
    <glyph glyph-name="u" unicode="u" horiz-adv-x="609" 
d="M63 182v328h127v-302c0 -62 16 -104 79 -104c92 0 143 81 143 172v234h127v-510h-122v58c0 20 2 36 2 36h-2c-25 -53 -90 -106 -177 -106c-109 0 -177 55 -177 194z" />
    <glyph glyph-name="v" unicode="v" horiz-adv-x="519" 
d="M185 0l-185 510h134l106 -316c10 -30 17 -77 18 -77h2c1 0 8 47 18 77l106 316h134l-183 -510h-150z" />
    <glyph glyph-name="w" unicode="w" horiz-adv-x="821" 
d="M170 0l-156 510h134l89 -335c7 -27 10 -54 10 -54h2s5 27 12 54l94 334h113l94 -334c7 -27 11 -54 11 -54h2s4 27 11 54l89 335h132l-155 -510h-141l-86 291c-8 27 -13 55 -13 55h-2s-4 -28 -12 -55l-86 -291h-142z" />
    <glyph glyph-name="x" unicode="x" horiz-adv-x="524" 
d="M263 175h-2s-7 -16 -14 -27l-89 -148h-141l168 258l-164 252h144l79 -139c8 -13 17 -32 17 -32h2s9 19 17 32l79 139h144l-164 -252l168 -258h-141l-89 148c-7 11 -14 27 -14 27z" />
    <glyph glyph-name="y" unicode="y" horiz-adv-x="521" 
d="M1 -177l42 95s28 -21 57 -21c35 0 69 21 88 66l19 45l-215 502h143l107 -294c10 -27 19 -69 19 -69h2s8 40 17 67l100 296h139l-228 -587c-36 -93 -107 -133 -184 -133c-61 0 -106 33 -106 33z" />
    <glyph glyph-name="z" unicode="z" horiz-adv-x="524" 
d="M35 0v68l229 287c23 29 43 47 43 47v2s-15 -2 -47 -2h-215v108h434v-69l-229 -287c-23 -29 -44 -47 -44 -47v-2s15 3 48 3h232v-108h-451z" />
    <glyph glyph-name="braceleft" unicode="{" horiz-adv-x="365" 
d="M128 71v97c0 100 -85 104 -85 104v111s85 4 85 106v86c0 152 120 169 177 169c18 0 31 -1 31 -1v-94s-8 1 -18 1c-27 0 -82 -9 -82 -85v-109c0 -100 -82 -127 -82 -127v-2s82 -23 82 -126v-120c0 -77 55 -85 82 -85c10 0 18 1 18 1v-94s-13 -2 -31 -2
c-57 0 -177 17 -177 170z" />
    <glyph glyph-name="bar" unicode="|" horiz-adv-x="290" 
d="M91 -161v957h108v-957h-108z" />
    <glyph glyph-name="braceright" unicode="}" horiz-adv-x="365" 
d="M29 -3c0 0 8 -1 18 -1c27 0 81 8 81 85v120c0 103 83 126 83 126v2s-83 27 -83 127v109c0 76 -54 85 -81 85c-10 0 -18 -1 -18 -1v94s13 1 31 1c57 0 177 -17 177 -169v-86c0 -102 85 -106 85 -106v-111s-85 -4 -85 -104v-97c0 -153 -120 -170 -177 -170
c-18 0 -31 2 -31 2v94z" />
    <glyph glyph-name="asciitilde" unicode="~" horiz-adv-x="610" 
d="M56 199c0 123 56 182 154 182c100 0 117 -91 184 -91c44 0 62 42 62 87h100c0 -123 -55 -182 -153 -182c-100 0 -117 90 -184 90c-44 0 -62 -41 -62 -86h-101z" />
    <glyph glyph-name="exclamdown" unicode="&#xa1;" horiz-adv-x="305" 
d="M91 391v118h122v-118h-122zM86 -200l11 504h111l10 -504h-132z" />
    <glyph glyph-name="cent" unicode="&#xa2;" horiz-adv-x="576" 
d="M257 -12v86c-127 21 -212 137 -212 281s85 260 212 282v84h86v-84c89 -16 158 -77 190 -162l-114 -44c-20 49 -58 89 -116 89c-77 0 -130 -69 -130 -165c0 -100 50 -165 130 -165c57 0 96 39 116 89l114 -44c-29 -72 -93 -149 -190 -161v-86h-86z" />
    <glyph glyph-name="sterling" unicode="&#xa3;" horiz-adv-x="591" 
d="M66 311v87h43v121c0 118 96 203 228 203c108 0 179 -72 179 -72l-73 -88s-47 43 -103 43c-60 0 -100 -39 -100 -90v-117h177v-87h-177v-200h312v-111h-501v111h58v200h-43z" />
    <glyph glyph-name="yen" unicode="&#xa5;" horiz-adv-x="614" 
d="M79 345v76h98l-154 289h147l93 -189c26 -53 43 -114 43 -114h2s17 61 43 114l93 189h147l-154 -289h98v-76h-137l-25 -49v-33h162v-76h-162v-187h-131v187h-163v76h163v33l-26 49h-137z" />
    <glyph glyph-name="section" unicode="&#xa7;" horiz-adv-x="470" 
d="M137 138l-73 344c-4 19 -7 39 -7 57c0 104 73 183 205 183c105 0 167 -62 167 -62l-57 -81s-46 39 -109 39c-58 0 -103 -27 -103 -94c0 -14 3 -31 7 -50l69 -336h-99zM38 -1l54 86s49 -44 113 -44c56 0 103 31 103 101c0 16 -4 35 -9 57l-67 323h100l71 -344
c4 -18 7 -35 7 -51c0 -108 -69 -189 -205 -189c-105 0 -167 61 -167 61z" />
    <glyph glyph-name="dieresis" unicode="&#xa8;" horiz-adv-x="493" 
d="M290 777v116h97v-116h-97zM106 777v116h98v-116h-98z" />
    <glyph glyph-name="copyright" unicode="&#xa9;" horiz-adv-x="809" 
d="M46 355c0 203 160 366 357 366c200 0 360 -163 360 -366s-160 -367 -360 -367c-197 0 -357 164 -357 367zM135 355c0 -160 117 -286 268 -286c154 0 272 126 272 286c0 159 -118 285 -272 285c-151 0 -268 -126 -268 -285zM221 353c0 106 77 195 187 195
c121 0 162 -105 162 -105l-76 -36s-26 58 -83 58c-60 0 -98 -50 -98 -112c0 -64 36 -112 98 -112c58 0 83 58 83 58l76 -35s-41 -106 -162 -106c-110 0 -187 89 -187 195z" />
    <glyph glyph-name="ordfeminine" unicode="&#xaa;" horiz-adv-x="413" 
d="M169 383c-53 0 -107 35 -107 98c0 107 134 110 185 110h9v7c0 39 -25 52 -58 52c-41 0 -82 -27 -82 -27l-32 59s46 38 128 38c87 0 134 -49 134 -130v-201h-84v44h-2s-25 -50 -91 -50zM192 453c37 0 63 37 63 72v7h-11c-35 0 -92 -5 -92 -45c0 -20 15 -34 40 -34zM63 266
v68h286v-68h-286z" />
    <glyph glyph-name="guillemotleft" unicode="&#xab;" horiz-adv-x="584" 
d="M259 282l164 206h121l-164 -206l164 -205h-121zM199 77l-164 205l164 206h121l-164 -206l164 -205h-121z" />
    <glyph glyph-name="logicalnot" unicode="&#xac;" horiz-adv-x="603" 
d="M47 339v98h488v-294h-102v196h-386z" />
    <glyph glyph-name="registered" unicode="&#xae;" horiz-adv-x="809" 
d="M46 355c0 203 160 366 357 366c200 0 360 -163 360 -366s-160 -367 -360 -367c-197 0 -357 164 -357 367zM135 355c0 -160 117 -286 268 -286c154 0 272 126 272 286c0 159 -118 285 -272 285c-151 0 -268 -126 -268 -285zM278 174v366h152c72 0 120 -46 120 -116
c0 -57 -39 -88 -65 -95v-2s4 -4 13 -21l69 -132h-94l-62 135h-48v-135h-85zM363 369h47c33 0 53 21 53 55c0 35 -20 54 -52 54h-48v-109z" />
    <glyph glyph-name="macron" unicode="&#xaf;" horiz-adv-x="493" 
d="M116 783v87h262v-87h-262z" />
    <glyph glyph-name="degree" unicode="&#xb0;" 
d="M198 408c-91 0 -163 69 -163 157c0 86 72 158 163 158c90 0 163 -72 163 -158c0 -88 -73 -157 -163 -157zM198 499c37 0 67 29 67 66c0 36 -30 66 -67 66s-66 -30 -66 -66c0 -37 29 -66 66 -66z" />
    <glyph glyph-name="plusminus" unicode="&#xb1;" horiz-adv-x="633" 
d="M49 236v99h216v237h103v-237h216v-99h-216v-236h-103v236h-216zM63 -85h508v-98h-508v98z" />
    <glyph glyph-name="twosuperior" unicode="&#xb2;" 
d="M48 423c-2 14 -4 29 -4 41c0 173 207 181 207 268c0 31 -27 52 -62 52c-45 0 -79 -46 -79 -46l-62 55s47 79 147 79c80 0 152 -49 152 -136c0 -143 -190 -157 -198 -230h204v-83h-305z" />
    <glyph glyph-name="threesuperior" unicode="&#xb3;" 
d="M185 413c-101 0 -149 67 -149 67l50 67s35 -47 97 -47c39 0 72 27 72 63c0 38 -38 57 -78 57h-35l-20 45l79 90c8 10 24 24 24 24v2s-20 -3 -35 -3h-129v84h280v-61l-99 -112c63 -12 109 -55 109 -127c0 -77 -63 -149 -166 -149z" />
    <glyph glyph-name="acute" unicode="&#xb4;" horiz-adv-x="493" 
d="M143 757l76 136h131l-105 -136h-102z" />
    <glyph glyph-name="mu" unicode="&#xb5;" horiz-adv-x="629" 
d="M77 -200v710h126v-302c0 -62 16 -104 79 -104c92 0 143 81 143 172v234h127v-510h-122v62c0 14 2 32 2 32h-3s-45 -106 -176 -106c-51 0 -72 21 -72 21h-2s7 -49 7 -83v-126h-109z" />
    <glyph glyph-name="mu" unicode="&#x3bc;" horiz-adv-x="629" 
d="M77 -200v710h126v-302c0 -62 16 -104 79 -104c92 0 143 81 143 172v234h127v-510h-122v62c0 14 2 32 2 32h-3s-45 -106 -176 -106c-51 0 -72 21 -72 21h-2s7 -49 7 -83v-126h-109z" />
    <glyph glyph-name="paragraph" unicode="&#xb6;" horiz-adv-x="613" 
d="M271 -50v291c-129 0 -235 103 -235 235s106 234 235 234h305v-111h-213v-649h-92zM425 -50v594h93v-594h-93z" />
    <glyph glyph-name="periodcentered" unicode="&#xb7;" horiz-adv-x="277" 
d="M77 229v126h123v-126h-123z" />
    <glyph glyph-name="cedilla" unicode="&#xb8;" horiz-adv-x="493" 
d="M211 25l58 -13v-7l-11 -49c41 -5 73 -29 73 -76c0 -66 -54 -88 -108 -88c-34 0 -61 7 -61 7v70s21 -8 43 -8c24 0 44 7 44 28c0 19 -21 27 -48 27c-11 0 -21 -2 -21 -2z" />
    <glyph glyph-name="onesuperior" unicode="&#xb9;" 
d="M67 423v83h92v207c0 16 2 28 2 28h-2s-4 -9 -15 -19l-31 -29l-56 60l113 109h84v-356h91v-83h-278z" />
    <glyph glyph-name="ordmasculine" unicode="&#xba;" horiz-adv-x="457" 
d="M228 384c-96 0 -175 70 -175 169c0 98 79 167 175 167c97 0 176 -69 176 -167c0 -99 -79 -169 -176 -169zM228 464c47 0 85 36 85 89c0 52 -38 88 -85 88c-46 0 -84 -36 -84 -88c0 -53 38 -89 84 -89zM68 266v68h322v-68h-322z" />
    <glyph glyph-name="guillemotright" unicode="&#xbb;" horiz-adv-x="585" 
d="M265 77l164 205l-164 206h121l164 -206l-164 -205h-121zM40 77l164 205l-164 206h121l164 -206l-164 -205h-121z" />
    <glyph glyph-name="onequarter" unicode="&#xbc;" horiz-adv-x="977" 
d="M368 0h-93l336 710h92zM66 271v83h92v207c0 16 2 28 2 28h-2s-4 -9 -15 -19l-31 -29l-56 60l113 109h84v-356h91v-83h-278zM797 0v99h-204v64l189 276h108v-258h58v-82h-58v-99h-93zM690 181h107v110c0 26 3 55 3 55h-2s-12 -27 -26 -47l-82 -116v-2z" />
    <glyph glyph-name="onehalf" unicode="&#xbd;" horiz-adv-x="979" 
d="M358 0h-93l336 710h92zM53 271v83h92v207c0 16 2 28 2 28h-2s-4 -9 -15 -19l-31 -29l-56 60l113 109h84v-356h91v-83h-278zM615 0c-2 14 -4 29 -4 41c0 173 207 181 207 268c0 31 -27 52 -62 52c-45 0 -79 -46 -79 -46l-62 55s47 79 147 79c80 0 152 -49 152 -136
c0 -143 -190 -157 -198 -230h204v-83h-305z" />
    <glyph glyph-name="threequarters" unicode="&#xbe;" horiz-adv-x="986" 
d="M364 0h-93l336 710h92zM793 0v99h-204v64l189 276h108v-258h58v-82h-58v-99h-93zM686 181h107v110c0 26 3 55 3 55h-2s-12 -27 -26 -47l-82 -116v-2zM182 261c-101 0 -149 67 -149 67l50 67s35 -47 97 -47c39 0 72 27 72 63c0 38 -38 57 -78 57h-35l-20 45l79 90
c8 10 24 24 24 24v2s-20 -3 -35 -3h-129v84h280v-61l-99 -112c63 -12 109 -55 109 -127c0 -77 -63 -149 -166 -149z" />
    <glyph glyph-name="questiondown" unicode="&#xbf;" horiz-adv-x="459" 
d="M207 392v118h122v-118h-122zM32 -22c0 164 175 184 175 292v35h122v-44c0 -145 -164 -169 -164 -271c0 -47 42 -84 97 -84c57 0 106 43 106 43l71 -88s-70 -71 -188 -71c-113 0 -219 69 -219 188z" />
    <glyph glyph-name="Agrave" unicode="&#xc0;" horiz-adv-x="637" 
d="M503 0l-60 182h-249l-60 -182h-133l250 710h135l250 -710h-133zM320 587h-2s-16 -70 -30 -110l-63 -190h186l-63 190c-13 40 -28 110 -28 110zM270 757l-104 136h131l76 -136h-103z" />
    <glyph glyph-name="Aacute" unicode="&#xc1;" horiz-adv-x="637" 
d="M503 0l-60 182h-249l-60 -182h-133l250 710h135l250 -710h-133zM320 587h-2s-16 -70 -30 -110l-63 -190h186l-63 190c-13 40 -28 110 -28 110zM264 757l76 136h131l-105 -136h-102z" />
    <glyph glyph-name="Acircumflex" unicode="&#xc2;" horiz-adv-x="637" 
d="M503 0l-60 182h-249l-60 -182h-133l250 710h135l250 -710h-133zM320 587h-2s-16 -70 -30 -110l-63 -190h186l-63 190c-13 40 -28 110 -28 110zM163 757l92 136h127l93 -136h-105l-50 81h-2l-50 -81h-105z" />
    <glyph glyph-name="Atilde" unicode="&#xc3;" horiz-adv-x="637" 
d="M503 0l-60 182h-249l-60 -182h-133l250 710h135l250 -710h-133zM320 587h-2s-16 -70 -30 -110l-63 -190h186l-63 190c-13 40 -28 110 -28 110zM137 758c0 91 37 137 112 137c67 0 85 -65 126 -65c28 0 39 30 39 62h86c0 -90 -36 -137 -112 -137c-67 0 -85 65 -126 65
c-28 0 -38 -29 -38 -62h-87z" />
    <glyph glyph-name="Adieresis" unicode="&#xc4;" horiz-adv-x="637" 
d="M503 0l-60 182h-249l-60 -182h-133l250 710h135l250 -710h-133zM320 587h-2s-16 -70 -30 -110l-63 -190h186l-63 190c-13 40 -28 110 -28 110zM362 777v116h97v-116h-97zM178 777v116h98v-116h-98z" />
    <glyph glyph-name="Aring" unicode="&#xc5;" horiz-adv-x="637" 
d="M503 0l-60 182h-249l-60 -182h-133l250 710h135l250 -710h-133zM320 587h-2s-16 -70 -30 -110l-63 -190h186l-63 190c-13 40 -28 110 -28 110zM319 745c-48 0 -95 27 -95 78c0 52 47 79 95 79c47 0 94 -27 94 -79c0 -51 -47 -78 -94 -78zM319 789c20 0 34 14 34 34
c0 21 -14 35 -34 35s-34 -14 -34 -35c0 -20 13 -34 34 -34z" />
    <glyph glyph-name="AE" unicode="&#xc6;" horiz-adv-x="903" 
d="M-4 0l295 710h553v-111h-297v-186h240v-111h-240v-191h312v-111h-440v304h-169l-120 -304h-134zM366 599l-75 -190h128v190h-53z" />
    <glyph glyph-name="Ccedilla" unicode="&#xc7;" horiz-adv-x="718" 
d="M43 358c0 206 156 364 365 364c173 0 262 -97 262 -97l-62 -96s-81 75 -194 75c-150 0 -238 -112 -238 -244c0 -135 91 -254 239 -254c123 0 206 90 206 90l68 -93s-92 -107 -261 -114l-7 -33c41 -5 73 -29 73 -76c0 -66 -54 -88 -108 -88c-34 0 -61 7 -61 7v70
s21 -8 43 -8c24 0 44 7 44 28c0 19 -21 27 -48 27c-11 0 -21 -2 -21 -2l21 77c-192 20 -321 173 -321 367z" />
    <glyph glyph-name="Egrave" unicode="&#xc8;" horiz-adv-x="575" 
d="M90 0v710h425v-111h-296v-186h239v-111h-239v-191h312v-111h-441zM264 757l-104 136h131l76 -136h-103z" />
    <glyph glyph-name="Eacute" unicode="&#xc9;" horiz-adv-x="575" 
d="M90 0v710h425v-111h-296v-186h239v-111h-239v-191h312v-111h-441zM258 757l76 136h131l-105 -136h-102z" />
    <glyph glyph-name="Ecircumflex" unicode="&#xca;" horiz-adv-x="575" 
d="M90 0v710h425v-111h-296v-186h239v-111h-239v-191h312v-111h-441zM157 757l92 136h127l93 -136h-105l-50 81h-2l-50 -81h-105z" />
    <glyph glyph-name="Edieresis" unicode="&#xcb;" horiz-adv-x="575" 
d="M90 0v710h425v-111h-296v-186h239v-111h-239v-191h312v-111h-441zM356 777v116h97v-116h-97zM172 777v116h98v-116h-98z" />
    <glyph glyph-name="Igrave" unicode="&#xcc;" horiz-adv-x="309" 
d="M90 0v710h129v-710h-129zM107 757l-104 136h131l76 -136h-103z" />
    <glyph glyph-name="Iacute" unicode="&#xcd;" horiz-adv-x="309" 
d="M90 0v710h129v-710h-129zM100 757l76 136h131l-105 -136h-102z" />
    <glyph glyph-name="Icircumflex" unicode="&#xce;" horiz-adv-x="309" 
d="M90 0v710h129v-710h-129zM-1 757l92 136h127l93 -136h-105l-50 81h-2l-50 -81h-105z" />
    <glyph glyph-name="Idieresis" unicode="&#xcf;" horiz-adv-x="309" 
d="M90 0v710h129v-710h-129zM199 777v116h97v-116h-97zM15 777v116h98v-116h-98z" />
    <glyph glyph-name="Eth" unicode="&#xd0;" horiz-adv-x="758" 
d="M51 301v105h58v304h242c219 0 362 -130 362 -354s-143 -356 -362 -356h-242v301h-58zM238 111h106c144 0 236 85 236 245c0 158 -94 243 -236 243h-106v-193h132v-105h-132v-190z" />
    <glyph glyph-name="Ntilde" unicode="&#xd1;" horiz-adv-x="760" 
d="M90 0v710h129l269 -410c27 -41 59 -110 59 -110h2s-7 68 -7 110v410h128v-710h-128l-269 409c-27 41 -59 110 -59 110h-2s7 -68 7 -110v-409h-129zM199 758c0 91 37 137 112 137c67 0 85 -65 126 -65c28 0 39 30 39 62h86c0 -90 -36 -137 -112 -137c-67 0 -85 65 -126 65
c-28 0 -38 -29 -38 -62h-87z" />
    <glyph glyph-name="Ograve" unicode="&#xd2;" horiz-adv-x="816" 
d="M41 360c0 203 158 362 367 362s367 -159 367 -362c0 -209 -158 -372 -367 -372s-367 163 -367 372zM174 360c0 -146 104 -254 234 -254s234 108 234 254c0 140 -104 244 -234 244s-234 -104 -234 -244zM360 757l-104 136h131l76 -136h-103z" />
    <glyph glyph-name="Oacute" unicode="&#xd3;" horiz-adv-x="816" 
d="M41 360c0 203 158 362 367 362s367 -159 367 -362c0 -209 -158 -372 -367 -372s-367 163 -367 372zM174 360c0 -146 104 -254 234 -254s234 108 234 254c0 140 -104 244 -234 244s-234 -104 -234 -244zM353 757l76 136h131l-105 -136h-102z" />
    <glyph glyph-name="Ocircumflex" unicode="&#xd4;" horiz-adv-x="816" 
d="M41 360c0 203 158 362 367 362s367 -159 367 -362c0 -209 -158 -372 -367 -372s-367 163 -367 372zM174 360c0 -146 104 -254 234 -254s234 108 234 254c0 140 -104 244 -234 244s-234 -104 -234 -244zM252 757l92 136h127l93 -136h-105l-50 81h-2l-50 -81h-105z" />
    <glyph glyph-name="Otilde" unicode="&#xd5;" horiz-adv-x="816" 
d="M41 360c0 203 158 362 367 362s367 -159 367 -362c0 -209 -158 -372 -367 -372s-367 163 -367 372zM174 360c0 -146 104 -254 234 -254s234 108 234 254c0 140 -104 244 -234 244s-234 -104 -234 -244zM227 758c0 91 37 137 112 137c67 0 85 -65 126 -65
c28 0 39 30 39 62h86c0 -90 -36 -137 -112 -137c-67 0 -85 65 -126 65c-28 0 -38 -29 -38 -62h-87z" />
    <glyph glyph-name="Odieresis" unicode="&#xd6;" horiz-adv-x="816" 
d="M41 360c0 203 158 362 367 362s367 -159 367 -362c0 -209 -158 -372 -367 -372s-367 163 -367 372zM174 360c0 -146 104 -254 234 -254s234 108 234 254c0 140 -104 244 -234 244s-234 -104 -234 -244zM452 777v116h97v-116h-97zM268 777v116h98v-116h-98z" />
    <glyph glyph-name="multiply" unicode="&#xd7;" horiz-adv-x="622" 
d="M47 69l197 217l-197 216l69 70l195 -214l195 214l69 -70l-198 -216l198 -217l-69 -69l-195 214l-195 -214z" />
    <glyph glyph-name="Oslash" unicode="&#xd8;" horiz-adv-x="820" 
d="M44 360c0 203 158 362 367 362c67 0 129 -17 183 -46l43 60l57 -39l-43 -60c78 -66 127 -165 127 -277c0 -209 -158 -372 -367 -372c-71 0 -136 18 -191 51l-47 -65l-57 39l49 67c-75 68 -121 167 -121 280zM645 360c0 70 -26 131 -68 174l-285 -395
c35 -21 75 -33 119 -33c130 0 234 108 234 254zM177 360c0 -70 23 -131 62 -176l283 392c-33 18 -71 28 -111 28c-130 0 -234 -104 -234 -244z" />
    <glyph glyph-name="Ugrave" unicode="&#xd9;" horiz-adv-x="733" 
d="M80 255v455h129v-455c0 -95 62 -149 157 -149s158 54 158 150v454h129v-455c0 -159 -115 -267 -286 -267c-172 0 -287 108 -287 267zM318 757l-104 136h131l76 -136h-103z" />
    <glyph glyph-name="Uacute" unicode="&#xda;" horiz-adv-x="733" 
d="M80 255v455h129v-455c0 -95 62 -149 157 -149s158 54 158 150v454h129v-455c0 -159 -115 -267 -286 -267c-172 0 -287 108 -287 267zM311 757l76 136h131l-105 -136h-102z" />
    <glyph glyph-name="Ucircumflex" unicode="&#xdb;" horiz-adv-x="733" 
d="M80 255v455h129v-455c0 -95 62 -149 157 -149s158 54 158 150v454h129v-455c0 -159 -115 -267 -286 -267c-172 0 -287 108 -287 267zM210 757l92 136h127l93 -136h-105l-50 81h-2l-50 -81h-105z" />
    <glyph glyph-name="Udieresis" unicode="&#xdc;" horiz-adv-x="733" 
d="M80 255v455h129v-455c0 -95 62 -149 157 -149s158 54 158 150v454h129v-455c0 -159 -115 -267 -286 -267c-172 0 -287 108 -287 267zM410 777v116h97v-116h-97zM226 777v116h98v-116h-98z" />
    <glyph glyph-name="Yacute" unicode="&#xdd;" horiz-adv-x="605" 
d="M238 0v297l-236 413h146l111 -209c23 -44 42 -96 43 -95h2s20 51 43 95l110 209h146l-236 -413v-297h-129zM248 757l76 136h131l-105 -136h-102z" />
    <glyph glyph-name="Thorn" unicode="&#xde;" horiz-adv-x="615" 
d="M90 0v710h128v-115h145c133 0 226 -93 226 -231s-93 -233 -226 -233h-145v-131h-128zM218 242h121c76 0 119 48 119 122s-43 120 -117 120h-123v-242z" />
    <glyph glyph-name="germandbls" unicode="&#xdf;" horiz-adv-x="604" 
d="M70 0v529c0 126 114 193 231 193c115 0 207 -74 207 -174c0 -91 -90 -118 -90 -176s162 -91 162 -218c0 -108 -86 -161 -180 -161c-92 0 -135 26 -135 26v108s52 -26 116 -26c37 0 71 16 71 60c0 67 -162 99 -162 208c0 79 90 112 90 177c0 35 -29 68 -83 68
c-51 0 -100 -28 -100 -94v-520h-127z" />
    <glyph glyph-name="agrave" unicode="&#xe0;" horiz-adv-x="534" 
d="M27 147c0 162 219 173 302 173h17v7c0 67 -42 90 -98 90c-73 0 -140 -49 -140 -49l-48 91s79 63 200 63c134 0 212 -74 212 -203v-319h-117v42c0 20 2 36 2 36h-2c1 0 -39 -90 -155 -90c-91 0 -173 57 -173 159zM155 153c0 -34 25 -66 77 -66c67 0 115 72 115 134v12h-22
c-65 0 -170 -9 -170 -80zM217 573l-104 136h131l76 -136h-103z" />
    <glyph glyph-name="aacute" unicode="&#xe1;" horiz-adv-x="534" 
d="M27 147c0 162 219 173 302 173h17v7c0 67 -42 90 -98 90c-73 0 -140 -49 -140 -49l-48 91s79 63 200 63c134 0 212 -74 212 -203v-319h-117v42c0 20 2 36 2 36h-2c1 0 -39 -90 -155 -90c-91 0 -173 57 -173 159zM155 153c0 -34 25 -66 77 -66c67 0 115 72 115 134v12h-22
c-65 0 -170 -9 -170 -80zM209 573l76 136h131l-105 -136h-102z" />
    <glyph glyph-name="acircumflex" unicode="&#xe2;" horiz-adv-x="534" 
d="M27 147c0 162 219 173 302 173h17v7c0 67 -42 90 -98 90c-73 0 -140 -49 -140 -49l-48 91s79 63 200 63c134 0 212 -74 212 -203v-319h-117v42c0 20 2 36 2 36h-2c1 0 -39 -90 -155 -90c-91 0 -173 57 -173 159zM155 153c0 -34 25 -66 77 -66c67 0 115 72 115 134v12h-22
c-65 0 -170 -9 -170 -80zM108 573l92 136h127l93 -136h-105l-50 81h-2l-50 -81h-105z" />
    <glyph glyph-name="atilde" unicode="&#xe3;" horiz-adv-x="534" 
d="M27 147c0 162 219 173 302 173h17v7c0 67 -42 90 -98 90c-73 0 -140 -49 -140 -49l-48 91s79 63 200 63c134 0 212 -74 212 -203v-319h-117v42c0 20 2 36 2 36h-2c1 0 -39 -90 -155 -90c-91 0 -173 57 -173 159zM155 153c0 -34 25 -66 77 -66c67 0 115 72 115 134v12h-22
c-65 0 -170 -9 -170 -80zM83 574c0 91 37 137 112 137c67 0 85 -65 126 -65c28 0 39 30 39 62h86c0 -90 -36 -137 -112 -137c-67 0 -85 65 -126 65c-28 0 -38 -29 -38 -62h-87z" />
    <glyph glyph-name="adieresis" unicode="&#xe4;" horiz-adv-x="534" 
d="M27 147c0 162 219 173 302 173h17v7c0 67 -42 90 -98 90c-73 0 -140 -49 -140 -49l-48 91s79 63 200 63c134 0 212 -74 212 -203v-319h-117v42c0 20 2 36 2 36h-2c1 0 -39 -90 -155 -90c-91 0 -173 57 -173 159zM155 153c0 -34 25 -66 77 -66c67 0 115 72 115 134v12h-22
c-65 0 -170 -9 -170 -80zM308 593v116h97v-116h-97zM124 593v116h98v-116h-98z" />
    <glyph glyph-name="aring" unicode="&#xe5;" horiz-adv-x="534" 
d="M27 147c0 162 219 173 302 173h17v7c0 67 -42 90 -98 90c-73 0 -140 -49 -140 -49l-48 91s79 63 200 63c134 0 212 -74 212 -203v-319h-117v42c0 20 2 36 2 36h-2c1 0 -39 -90 -155 -90c-91 0 -173 57 -173 159zM155 153c0 -34 25 -66 77 -66c67 0 115 72 115 134v12h-22
c-65 0 -170 -9 -170 -80zM264 561c-48 0 -95 27 -95 78c0 52 47 79 95 79c47 0 94 -27 94 -79c0 -51 -47 -78 -94 -78zM264 605c20 0 34 14 34 34c0 21 -14 35 -34 35s-34 -14 -34 -35c0 -20 13 -34 34 -34z" />
    <glyph glyph-name="ae" unicode="&#xe6;" horiz-adv-x="853" 
d="M27 147c0 157 206 173 302 173h17v7c0 67 -42 90 -99 90c-72 0 -140 -49 -140 -49l-47 90s76 64 196 64c89 0 137 -29 166 -75h2c40 49 97 75 170 75c145 0 224 -111 224 -250c0 -13 -2 -39 -2 -39h-349c9 -95 73 -137 150 -137c82 0 146 55 146 55l50 -90
s-78 -73 -205 -73c-101 0 -172 43 -214 112h-2c-10 -24 -64 -111 -191 -111c-94 0 -174 58 -174 158zM471 320h220c-2 67 -46 103 -99 103c-64 0 -108 -35 -121 -103zM155 153c0 -35 25 -66 78 -66c69 0 115 72 115 135v11h-36c-68 0 -157 -14 -157 -80z" />
    <glyph glyph-name="ccedilla" unicode="&#xe7;" horiz-adv-x="546" 
d="M34 255c0 145 108 267 277 267c133 0 196 -76 196 -76l-56 -87s-53 55 -133 55c-94 0 -155 -71 -155 -158c0 -86 62 -160 159 -160c86 0 150 65 150 65l49 -90s-68 -76 -194 -82l-7 -33c41 -5 73 -29 73 -76c0 -66 -54 -88 -108 -88c-34 0 -61 7 -61 7v70s21 -8 43 -8
c24 0 44 7 44 28c0 19 -21 27 -48 27c-11 0 -21 -2 -21 -2l21 78c-141 19 -229 129 -229 263z" />
    <glyph glyph-name="egrave" unicode="&#xe8;" horiz-adv-x="554" 
d="M34 255c0 157 107 267 259 267c147 0 226 -107 226 -242c0 -15 -3 -49 -3 -49h-352c8 -89 77 -135 153 -135c82 0 147 56 147 56l49 -91s-78 -73 -205 -73c-169 0 -274 122 -274 267zM168 318h223c-2 69 -45 106 -101 106c-65 0 -110 -40 -122 -106zM243 573l-104 136
h131l76 -136h-103z" />
    <glyph glyph-name="eacute" unicode="&#xe9;" horiz-adv-x="554" 
d="M34 255c0 157 107 267 259 267c147 0 226 -107 226 -242c0 -15 -3 -49 -3 -49h-352c8 -89 77 -135 153 -135c82 0 147 56 147 56l49 -91s-78 -73 -205 -73c-169 0 -274 122 -274 267zM168 318h223c-2 69 -45 106 -101 106c-65 0 -110 -40 -122 -106zM235 573l76 136h131
l-105 -136h-102z" />
    <glyph glyph-name="ecircumflex" unicode="&#xea;" horiz-adv-x="554" 
d="M34 255c0 157 107 267 259 267c147 0 226 -107 226 -242c0 -15 -3 -49 -3 -49h-352c8 -89 77 -135 153 -135c82 0 147 56 147 56l49 -91s-78 -73 -205 -73c-169 0 -274 122 -274 267zM168 318h223c-2 69 -45 106 -101 106c-65 0 -110 -40 -122 -106zM134 573l92 136h127
l93 -136h-105l-50 81h-2l-50 -81h-105z" />
    <glyph glyph-name="edieresis" unicode="&#xeb;" horiz-adv-x="554" 
d="M34 255c0 157 107 267 259 267c147 0 226 -107 226 -242c0 -15 -3 -49 -3 -49h-352c8 -89 77 -135 153 -135c82 0 147 56 147 56l49 -91s-78 -73 -205 -73c-169 0 -274 122 -274 267zM168 318h223c-2 69 -45 106 -101 106c-65 0 -110 -40 -122 -106zM334 593v116h97v-116
h-97zM150 593v116h98v-116h-98z" />
    <glyph glyph-name="igrave" unicode="&#xec;" horiz-adv-x="267" 
d="M85 573l-104 136h131l76 -136h-103zM70 0v510h127v-510h-127z" />
    <glyph glyph-name="iacute" unicode="&#xed;" horiz-adv-x="267" 
d="M78 573l76 136h131l-105 -136h-102zM70 0v510h127v-510h-127z" />
    <glyph glyph-name="icircumflex" unicode="&#xee;" horiz-adv-x="267" 
d="M70 0v510h127v-510h-127zM-23 573l92 136h127l93 -136h-105l-50 81h-2l-50 -81h-105z" />
    <glyph glyph-name="idieresis" unicode="&#xef;" horiz-adv-x="267" 
d="M177 593v116h97v-116h-97zM-7 593v116h98v-116h-98zM70 0v510h127v-510h-127z" />
    <glyph glyph-name="eth" unicode="&#xf0;" horiz-adv-x="585" 
d="M33 237c0 118 85 228 235 228c64 0 102 -29 102 -29h2c-19 42 -52 79 -94 106l-185 -80l-6 75l111 49c-37 18 -78 31 -115 40l35 100c76 -17 152 -44 216 -83l148 63l6 -74l-88 -39c82 -72 137 -176 137 -315c0 -136 -71 -290 -260 -290c-156 0 -244 122 -244 249z
M161 234c0 -70 38 -139 119 -139c93 0 129 85 129 160c0 64 -45 111 -118 111c-88 0 -130 -65 -130 -132z" />
    <glyph glyph-name="ntilde" unicode="&#xf1;" horiz-adv-x="613" 
d="M70 0v510h122v-59c0 -19 -2 -35 -2 -35h2c22 43 78 106 181 106c113 0 177 -59 177 -194v-328h-126v302c0 62 -16 104 -81 104c-68 0 -118 -43 -137 -104c-7 -21 -9 -44 -9 -68v-234h-127zM135 574c0 91 37 137 112 137c67 0 85 -65 126 -65c28 0 39 30 39 62h86
c0 -90 -36 -137 -112 -137c-67 0 -85 65 -126 65c-28 0 -38 -29 -38 -62h-87z" />
    <glyph glyph-name="ograve" unicode="&#xf2;" horiz-adv-x="625" 
d="M32 255c0 156 125 267 280 267c156 0 281 -111 281 -267c0 -157 -125 -267 -280 -267c-156 0 -281 110 -281 267zM161 255c0 -95 69 -159 152 -159c82 0 151 64 151 159c0 94 -69 159 -151 159c-83 0 -152 -65 -152 -159zM264 573l-104 136h131l76 -136h-103z" />
    <glyph glyph-name="oacute" unicode="&#xf3;" horiz-adv-x="625" 
d="M32 255c0 156 125 267 280 267c156 0 281 -111 281 -267c0 -157 -125 -267 -280 -267c-156 0 -281 110 -281 267zM161 255c0 -95 69 -159 152 -159c82 0 151 64 151 159c0 94 -69 159 -151 159c-83 0 -152 -65 -152 -159zM258 573l76 136h131l-105 -136h-102z" />
    <glyph glyph-name="ocircumflex" unicode="&#xf4;" horiz-adv-x="625" 
d="M32 255c0 156 125 267 280 267c156 0 281 -111 281 -267c0 -157 -125 -267 -280 -267c-156 0 -281 110 -281 267zM161 255c0 -95 69 -159 152 -159c82 0 151 64 151 159c0 94 -69 159 -151 159c-83 0 -152 -65 -152 -159zM157 573l92 136h127l93 -136h-105l-50 81h-2
l-50 -81h-105z" />
    <glyph glyph-name="otilde" unicode="&#xf5;" horiz-adv-x="625" 
d="M32 255c0 156 125 267 280 267c156 0 281 -111 281 -267c0 -157 -125 -267 -280 -267c-156 0 -281 110 -281 267zM161 255c0 -95 69 -159 152 -159c82 0 151 64 151 159c0 94 -69 159 -151 159c-83 0 -152 -65 -152 -159zM131 574c0 91 37 137 112 137
c67 0 85 -65 126 -65c28 0 39 30 39 62h86c0 -90 -36 -137 -112 -137c-67 0 -85 65 -126 65c-28 0 -38 -29 -38 -62h-87z" />
    <glyph glyph-name="odieresis" unicode="&#xf6;" horiz-adv-x="625" 
d="M32 255c0 156 125 267 280 267c156 0 281 -111 281 -267c0 -157 -125 -267 -280 -267c-156 0 -281 110 -281 267zM161 255c0 -95 69 -159 152 -159c82 0 151 64 151 159c0 94 -69 159 -151 159c-83 0 -152 -65 -152 -159zM356 593v116h97v-116h-97zM172 593v116h98v-116
h-98z" />
    <glyph glyph-name="divide" unicode="&#xf7;" horiz-adv-x="625" 
d="M255 437v108h114v-108h-114zM52 236v99h521v-99h-521zM255 27v108h114v-108h-114z" />
    <glyph glyph-name="oslash" unicode="&#xf8;" horiz-adv-x="625" 
d="M32 255c0 156 125 267 280 267c48 0 94 -11 134 -31l40 56l55 -38l-39 -55c56 -47 91 -117 91 -199c0 -157 -125 -267 -280 -267c-46 0 -89 10 -127 26l-41 -57l-55 39l39 54c-60 47 -97 119 -97 205zM161 255c0 -44 14 -80 38 -108l180 251c-20 10 -43 16 -66 16
c-83 0 -152 -65 -152 -159zM464 255c0 39 -12 74 -33 101l-178 -248c19 -8 39 -12 60 -12c82 0 151 64 151 159z" />
    <glyph glyph-name="ugrave" unicode="&#xf9;" horiz-adv-x="609" 
d="M63 182v328h127v-302c0 -62 16 -104 79 -104c92 0 143 81 143 172v234h127v-510h-122v58c0 20 2 36 2 36h-2c-25 -53 -90 -106 -177 -106c-109 0 -177 55 -177 194zM253 573l-104 136h131l76 -136h-103z" />
    <glyph glyph-name="uacute" unicode="&#xfa;" horiz-adv-x="609" 
d="M63 182v328h127v-302c0 -62 16 -104 79 -104c92 0 143 81 143 172v234h127v-510h-122v58c0 20 2 36 2 36h-2c-25 -53 -90 -106 -177 -106c-109 0 -177 55 -177 194zM246 573l76 136h131l-105 -136h-102z" />
    <glyph glyph-name="ucircumflex" unicode="&#xfb;" horiz-adv-x="609" 
d="M63 182v328h127v-302c0 -62 16 -104 79 -104c92 0 143 81 143 172v234h127v-510h-122v58c0 20 2 36 2 36h-2c-25 -53 -90 -106 -177 -106c-109 0 -177 55 -177 194zM145 573l92 136h127l93 -136h-105l-50 81h-2l-50 -81h-105z" />
    <glyph glyph-name="udieresis" unicode="&#xfc;" horiz-adv-x="609" 
d="M63 182v328h127v-302c0 -62 16 -104 79 -104c92 0 143 81 143 172v234h127v-510h-122v58c0 20 2 36 2 36h-2c-25 -53 -90 -106 -177 -106c-109 0 -177 55 -177 194zM345 593v116h97v-116h-97zM161 593v116h98v-116h-98z" />
    <glyph glyph-name="yacute" unicode="&#xfd;" horiz-adv-x="521" 
d="M1 -177l42 95s28 -21 57 -21c35 0 69 21 88 66l19 45l-215 502h143l107 -294c10 -27 19 -69 19 -69h2s8 40 17 67l100 296h139l-228 -587c-36 -93 -107 -133 -184 -133c-61 0 -106 33 -106 33zM207 573l76 136h131l-105 -136h-102z" />
    <glyph glyph-name="thorn" unicode="&#xfe;" horiz-adv-x="610" 
d="M70 -200v910h127v-218c0 -25 -2 -42 -2 -42h2c18 24 61 72 150 72c139 0 229 -114 229 -267c0 -154 -94 -267 -231 -267c-109 0 -148 69 -148 69h-2s2 -18 2 -44v-213h-127zM193 254c0 -100 52 -159 129 -159c73 0 126 67 126 160c0 92 -50 159 -125 159
c-70 0 -130 -43 -130 -160z" />
    <glyph glyph-name="ydieresis" unicode="&#xff;" horiz-adv-x="521" 
d="M1 -177l42 95s28 -21 57 -21c35 0 69 21 88 66l19 45l-215 502h143l107 -294c10 -27 19 -69 19 -69h2s8 40 17 67l100 296h139l-228 -587c-36 -93 -107 -133 -184 -133c-61 0 -106 33 -106 33zM306 593v116h97v-116h-97zM122 593v116h98v-116h-98z" />
    <glyph glyph-name="Amacron" unicode="&#x100;" horiz-adv-x="637" 
d="M503 0l-60 182h-249l-60 -182h-133l250 710h135l250 -710h-133zM320 587h-2s-16 -70 -30 -110l-63 -190h186l-63 190c-13 40 -28 110 -28 110zM188 783v87h262v-87h-262z" />
    <glyph glyph-name="amacron" unicode="&#x101;" horiz-adv-x="534" 
d="M27 147c0 162 219 173 302 173h17v7c0 67 -42 90 -98 90c-73 0 -140 -49 -140 -49l-48 91s79 63 200 63c134 0 212 -74 212 -203v-319h-117v42c0 20 2 36 2 36h-2c1 0 -39 -90 -155 -90c-91 0 -173 57 -173 159zM155 153c0 -34 25 -66 77 -66c67 0 115 72 115 134v12h-22
c-65 0 -170 -9 -170 -80zM134 599v87h262v-87h-262z" />
    <glyph glyph-name="Abreve" unicode="&#x102;" horiz-adv-x="637" 
d="M503 0l-60 182h-249l-60 -182h-133l250 710h135l250 -710h-133zM320 587h-2s-16 -70 -30 -110l-63 -190h186l-63 190c-13 40 -28 110 -28 110zM319 753c-79 0 -149 45 -149 128v12h90v-12c0 -41 29 -59 59 -59c28 0 58 18 58 60v11h90v-12c0 -83 -70 -128 -148 -128z" />
    <glyph glyph-name="abreve" unicode="&#x103;" horiz-adv-x="534" 
d="M27 147c0 162 219 173 302 173h17v7c0 67 -42 90 -98 90c-73 0 -140 -49 -140 -49l-48 91s79 63 200 63c134 0 212 -74 212 -203v-319h-117v42c0 20 2 36 2 36h-2c1 0 -39 -90 -155 -90c-91 0 -173 57 -173 159zM155 153c0 -34 25 -66 77 -66c67 0 115 72 115 134v12h-22
c-65 0 -170 -9 -170 -80zM264 569c-79 0 -149 45 -149 128v12h90v-12c0 -41 29 -59 59 -59c28 0 58 18 58 60v11h90v-12c0 -83 -70 -128 -148 -128z" />
    <glyph glyph-name="Aogonek" unicode="&#x104;" horiz-adv-x="637" 
d="M503 0l-60 182h-249l-60 -182h-133l250 710h135l250 -710c-19 -16 -56 -50 -56 -78c0 -32 49 -36 49 -36l-31 -94s-123 11 -123 96c0 51 42 91 65 110v2h-37zM320 587h-2s-17 -70 -30 -110l-63 -190h186l-63 190c-13 40 -28 110 -28 110z" />
    <glyph glyph-name="aogonek" unicode="&#x105;" horiz-adv-x="534" 
d="M27 147c0 162 219 173 302 173h17v7c0 67 -42 90 -98 90c-73 0 -140 -49 -140 -49l-48 91s79 63 200 63c134 0 212 -74 212 -203v-319c-19 -16 -56 -50 -56 -78c0 -32 49 -36 49 -36l-30 -94s-123 11 -123 96c0 51 43 91 65 110v2h-22v42c0 20 2 36 2 36h-2
c1 0 -39 -90 -155 -90c-91 0 -173 57 -173 159zM155 153c0 -34 25 -66 77 -66c67 0 115 72 115 134v12h-22c-65 0 -170 -9 -170 -80z" />
    <glyph glyph-name="Cacute" unicode="&#x106;" horiz-adv-x="716" 
d="M41 358c0 206 156 364 365 364c173 0 262 -97 262 -97l-62 -96s-81 75 -194 75c-150 0 -238 -112 -238 -244c0 -135 91 -254 239 -254c123 0 206 90 206 90l68 -93s-98 -115 -279 -115c-217 0 -367 161 -367 370zM343 757l76 136h131l-105 -136h-102z" />
    <glyph glyph-name="cacute" unicode="&#x107;" horiz-adv-x="545" 
d="M33 255c0 145 108 267 277 267c133 0 196 -76 196 -76l-56 -87s-53 55 -133 55c-94 0 -155 -71 -155 -158c0 -86 62 -160 159 -160c86 0 150 65 150 65l49 -90s-73 -83 -210 -83c-169 0 -277 119 -277 267zM236 573l76 136h131l-105 -136h-102z" />
    <glyph glyph-name="Ccircumflex" unicode="&#x108;" horiz-adv-x="716" 
d="M41 358c0 206 156 364 365 364c173 0 262 -97 262 -97l-62 -96s-81 75 -194 75c-150 0 -238 -112 -238 -244c0 -135 91 -254 239 -254c123 0 206 90 206 90l68 -93s-98 -115 -279 -115c-217 0 -367 161 -367 370zM242 757l92 136h127l93 -136h-105l-50 81h-2l-50 -81
h-105z" />
    <glyph glyph-name="ccircumflex" unicode="&#x109;" horiz-adv-x="545" 
d="M33 255c0 145 108 267 277 267c133 0 196 -76 196 -76l-56 -87s-53 55 -133 55c-94 0 -155 -71 -155 -158c0 -86 62 -160 159 -160c86 0 150 65 150 65l49 -90s-73 -83 -210 -83c-169 0 -277 119 -277 267zM135 573l92 136h127l93 -136h-105l-50 81h-2l-50 -81h-105z" />
    <glyph glyph-name="Cdotaccent" unicode="&#x10a;" horiz-adv-x="716" 
d="M41 358c0 206 156 364 365 364c173 0 262 -97 262 -97l-62 -96s-81 75 -194 75c-150 0 -238 -112 -238 -244c0 -135 91 -254 239 -254c123 0 206 90 206 90l68 -93s-98 -115 -279 -115c-217 0 -367 161 -367 370zM344 782v111h108v-111h-108z" />
    <glyph glyph-name="cdotaccent" unicode="&#x10b;" horiz-adv-x="545" 
d="M33 255c0 145 108 267 277 267c133 0 196 -76 196 -76l-56 -87s-53 55 -133 55c-94 0 -155 -71 -155 -158c0 -86 62 -160 159 -160c86 0 150 65 150 65l49 -90s-73 -83 -210 -83c-169 0 -277 119 -277 267zM238 598v111h108v-111h-108z" />
    <glyph glyph-name="Ccaron" unicode="&#x10c;" horiz-adv-x="716" 
d="M41 358c0 206 156 364 365 364c173 0 262 -97 262 -97l-62 -96s-81 75 -194 75c-150 0 -238 -112 -238 -244c0 -135 91 -254 239 -254c123 0 206 90 206 90l68 -93s-98 -115 -279 -115c-217 0 -367 161 -367 370zM334 757l-92 136h105l50 -81h2l50 81h105l-93 -136h-127z
" />
    <glyph glyph-name="ccaron" unicode="&#x10d;" horiz-adv-x="545" 
d="M33 255c0 145 108 267 277 267c133 0 196 -76 196 -76l-56 -87s-53 55 -133 55c-94 0 -155 -71 -155 -158c0 -86 62 -160 159 -160c86 0 150 65 150 65l49 -90s-73 -83 -210 -83c-169 0 -277 119 -277 267zM227 573l-92 136h105l50 -81h2l50 81h105l-93 -136h-127z" />
    <glyph glyph-name="Dcaron" unicode="&#x10e;" horiz-adv-x="739" 
d="M90 0v710h242c219 0 362 -130 362 -354s-143 -356 -362 -356h-242zM219 111h106c144 0 236 85 236 245c0 158 -94 243 -236 243h-106v-488zM283 757l-92 136h105l50 -81h2l50 81h105l-93 -136h-127z" />
    <glyph glyph-name="dcaron" unicode="&#x10f;" horiz-adv-x="641" 
d="M35 255c0 162 96 267 231 267c112 0 147 -65 147 -65h2s-1 13 -1 29v224h127v-710h-120v42c0 19 2 33 2 33h-2s-43 -87 -160 -87c-138 0 -226 109 -226 267zM163 255c0 -97 52 -160 127 -160c66 0 128 48 128 161c0 79 -42 157 -127 157c-70 0 -128 -57 -128 -158z
M595 710h105c5 -20 7 -37 7 -54c0 -33 -9 -62 -26 -97h-94c12 32 20 59 20 87c0 19 -3 40 -12 64z" />
    <glyph glyph-name="Dcroat" unicode="&#x110;" horiz-adv-x="758" 
d="M51 301v105h58v304h242c219 0 362 -130 362 -354s-143 -356 -362 -356h-242v301h-58zM238 111h106c144 0 236 85 236 245c0 158 -94 243 -236 243h-106v-193h132v-105h-132v-190z" />
    <glyph glyph-name="dcroat" unicode="&#x111;" horiz-adv-x="611" 
d="M286 559v76h128v75h127v-75h72v-76h-72v-559h-120v42c0 19 2 33 2 33h-2s-43 -87 -160 -87c-138 0 -226 109 -226 267c0 162 96 267 231 267c112 0 147 -65 147 -65h2s-1 13 -1 29v73h-128zM163 255c0 -97 52 -160 127 -160c66 0 128 48 128 161c0 79 -42 157 -127 157
c-70 0 -128 -57 -128 -158z" />
    <glyph glyph-name="Emacron" unicode="&#x112;" horiz-adv-x="575" 
d="M90 0v710h425v-111h-296v-186h239v-111h-239v-191h312v-111h-441zM182 783v87h262v-87h-262z" />
    <glyph glyph-name="emacron" unicode="&#x113;" horiz-adv-x="554" 
d="M34 255c0 157 107 267 259 267c147 0 226 -107 226 -242c0 -15 -3 -49 -3 -49h-352c8 -89 77 -135 153 -135c82 0 147 56 147 56l49 -91s-78 -73 -205 -73c-169 0 -274 122 -274 267zM168 318h223c-2 69 -45 106 -101 106c-65 0 -110 -40 -122 -106zM160 599v87h262v-87
h-262z" />
    <glyph glyph-name="Ebreve" unicode="&#x114;" horiz-adv-x="575" 
d="M90 0v710h425v-111h-296v-186h239v-111h-239v-191h312v-111h-441zM313 753c-79 0 -149 45 -149 128v12h90v-12c0 -41 29 -59 59 -59c28 0 58 18 58 60v11h90v-12c0 -83 -70 -128 -148 -128z" />
    <glyph glyph-name="ebreve" unicode="&#x115;" horiz-adv-x="554" 
d="M34 255c0 157 107 267 259 267c147 0 226 -107 226 -242c0 -15 -3 -49 -3 -49h-352c8 -89 77 -135 153 -135c82 0 147 56 147 56l49 -91s-78 -73 -205 -73c-169 0 -274 122 -274 267zM168 318h223c-2 69 -45 106 -101 106c-65 0 -110 -40 -122 -106zM291 569
c-79 0 -149 45 -149 128v12h90v-12c0 -41 29 -59 59 -59c28 0 58 18 58 60v11h90v-12c0 -83 -70 -128 -148 -128z" />
    <glyph glyph-name="Edotaccent" unicode="&#x116;" horiz-adv-x="575" 
d="M90 0v710h425v-111h-296v-186h239v-111h-239v-191h312v-111h-441zM259 782v111h108v-111h-108z" />
    <glyph glyph-name="edotaccent" unicode="&#x117;" horiz-adv-x="554" 
d="M34 255c0 157 107 267 259 267c147 0 226 -107 226 -242c0 -15 -3 -49 -3 -49h-352c8 -89 77 -135 153 -135c82 0 147 56 147 56l49 -91s-78 -73 -205 -73c-169 0 -274 122 -274 267zM168 318h223c-2 69 -45 106 -101 106c-65 0 -110 -40 -122 -106zM237 598v111h108
v-111h-108z" />
    <glyph glyph-name="Eogonek" unicode="&#x118;" horiz-adv-x="575" 
d="M90 0v710h425v-111h-296v-186h239v-111h-239v-191h312v-111c-19 -16 -56 -50 -56 -78c0 -32 49 -36 49 -36l-31 -94s-122 11 -122 96c0 52 43 91 67 110v2h-348z" />
    <glyph glyph-name="eogonek" unicode="&#x119;" horiz-adv-x="555" 
d="M34 255c0 157 107 267 259 267c147 0 226 -107 226 -242c0 -15 -3 -49 -3 -49h-352c8 -92 77 -135 153 -135c82 0 147 56 147 56l49 -90c-36 -36 -124 -78 -124 -140c0 -32 49 -36 49 -36l-31 -94s-122 11 -122 96c0 44 30 77 58 101v2c-12 -2 -22 -3 -35 -3
c-169 0 -274 122 -274 267zM168 318h223c-2 69 -45 106 -101 106c-65 0 -110 -40 -122 -106z" />
    <glyph glyph-name="Ecaron" unicode="&#x11a;" horiz-adv-x="575" 
d="M90 0v710h425v-111h-296v-186h239v-111h-239v-191h312v-111h-441zM249 757l-92 136h105l50 -81h2l50 81h105l-93 -136h-127z" />
    <glyph glyph-name="ecaron" unicode="&#x11b;" horiz-adv-x="554" 
d="M34 255c0 157 107 267 259 267c147 0 226 -107 226 -242c0 -15 -3 -49 -3 -49h-352c8 -89 77 -135 153 -135c82 0 147 56 147 56l49 -91s-78 -73 -205 -73c-169 0 -274 122 -274 267zM168 318h223c-2 69 -45 106 -101 106c-65 0 -110 -40 -122 -106zM226 573l-92 136h105
l50 -81h2l50 81h105l-93 -136h-127z" />
    <glyph glyph-name="Gcircumflex" unicode="&#x11c;" horiz-adv-x="760" 
d="M42 356c0 206 155 366 366 366c174 0 264 -90 264 -90l-64 -96s-76 68 -189 68c-159 0 -244 -110 -244 -244c0 -154 105 -254 238 -254c107 0 178 74 178 74v83h-109v111h225v-374h-110v34c0 15 1 30 1 30h-2s-74 -76 -206 -76c-187 0 -348 145 -348 368zM242 757l92 136
h127l93 -136h-105l-50 81h-2l-50 -81h-105z" />
    <glyph glyph-name="gcircumflex" unicode="&#x11d;" horiz-adv-x="604" 
d="M122 -69c0 0 64 -33 141 -33c78 0 144 33 144 124v30c0 12 2 27 2 27h-2c-30 -45 -74 -69 -142 -69c-146 0 -229 118 -229 258s79 254 226 254c111 0 151 -65 151 -65h3s-1 6 -1 14v39h119v-479c0 -175 -136 -241 -269 -241c-64 0 -132 18 -181 44zM292 117
c61 0 118 35 118 150c0 116 -57 147 -126 147c-77 0 -120 -56 -120 -142c0 -89 46 -155 128 -155zM137 573l92 136h127l93 -136h-105l-50 81h-2l-50 -81h-105z" />
    <glyph glyph-name="Gbreve" unicode="&#x11e;" horiz-adv-x="760" 
d="M42 356c0 206 155 366 366 366c174 0 264 -90 264 -90l-64 -96s-76 68 -189 68c-159 0 -244 -110 -244 -244c0 -154 105 -254 238 -254c107 0 178 74 178 74v83h-109v111h225v-374h-110v34c0 15 1 30 1 30h-2s-74 -76 -206 -76c-187 0 -348 145 -348 368zM398 753
c-79 0 -149 45 -149 128v12h90v-12c0 -41 29 -59 59 -59c28 0 58 18 58 60v11h90v-12c0 -83 -70 -128 -148 -128z" />
    <glyph glyph-name="gbreve" unicode="&#x11f;" horiz-adv-x="604" 
d="M122 -69c0 0 64 -33 141 -33c78 0 144 33 144 124v30c0 12 2 27 2 27h-2c-30 -45 -74 -69 -142 -69c-146 0 -229 118 -229 258s79 254 226 254c111 0 151 -65 151 -65h3s-1 6 -1 14v39h119v-479c0 -175 -136 -241 -269 -241c-64 0 -132 18 -181 44zM292 117
c61 0 118 35 118 150c0 116 -57 147 -126 147c-77 0 -120 -56 -120 -142c0 -89 46 -155 128 -155zM293 569c-79 0 -149 45 -149 128v12h90v-12c0 -41 29 -59 59 -59c28 0 58 18 58 60v11h90v-12c0 -83 -70 -128 -148 -128z" />
    <glyph glyph-name="Gdotaccent" unicode="&#x120;" horiz-adv-x="760" 
d="M42 356c0 206 155 366 366 366c174 0 264 -90 264 -90l-64 -96s-76 68 -189 68c-159 0 -244 -110 -244 -244c0 -154 105 -254 238 -254c107 0 178 74 178 74v83h-109v111h225v-374h-110v34c0 15 1 30 1 30h-2s-74 -76 -206 -76c-187 0 -348 145 -348 368zM344 782v111
h108v-111h-108z" />
    <glyph glyph-name="gdotaccent" unicode="&#x121;" horiz-adv-x="604" 
d="M122 -69c0 0 64 -33 141 -33c78 0 144 33 144 124v30c0 12 2 27 2 27h-2c-30 -45 -74 -69 -142 -69c-146 0 -229 118 -229 258s79 254 226 254c111 0 151 -65 151 -65h3s-1 6 -1 14v39h119v-479c0 -175 -136 -241 -269 -241c-64 0 -132 18 -181 44zM292 117
c61 0 118 35 118 150c0 116 -57 147 -126 147c-77 0 -120 -56 -120 -142c0 -89 46 -155 128 -155zM239 598v111h108v-111h-108z" />
    <glyph glyph-name="Gcommaaccent" unicode="&#x122;" horiz-adv-x="760" 
d="M42 356c0 206 155 366 366 366c174 0 264 -90 264 -90l-64 -96s-76 68 -189 68c-159 0 -244 -110 -244 -244c0 -154 105 -254 238 -254c107 0 178 74 178 74v83h-109v111h225v-374h-110v34c0 15 1 30 1 30h-2s-74 -76 -206 -76c-187 0 -348 145 -348 368zM336 -55h105
c5 -20 7 -37 7 -54c0 -33 -9 -62 -26 -97h-94c12 32 20 59 20 87c0 19 -3 40 -12 64z" />
    <glyph glyph-name="gcommaaccent" unicode="&#x123;" horiz-adv-x="604" 
d="M122 -69c0 0 64 -33 141 -33c78 0 144 33 144 124v30c0 12 2 27 2 27h-2c-30 -45 -74 -69 -142 -69c-146 0 -229 118 -229 258s79 254 226 254c111 0 151 -65 151 -65h3s-1 6 -1 14v39h119v-479c0 -175 -136 -241 -269 -241c-64 0 -132 18 -181 44zM292 117
c61 0 118 35 118 150c0 116 -57 147 -126 147c-77 0 -120 -56 -120 -142c0 -89 46 -155 128 -155zM348 562h-105c-5 19 -7 36 -7 52c0 33 9 61 26 95h93c-11 -31 -19 -58 -19 -85c0 -18 3 -39 12 -62z" />
    <glyph glyph-name="Hcircumflex" unicode="&#x124;" horiz-adv-x="763" 
d="M90 0v710h129v-301h325v301h129v-710h-129v298h-325v-298h-129zM225 757l92 136h127l93 -136h-105l-50 81h-2l-50 -81h-105z" />
    <glyph glyph-name="hcircumflex" unicode="&#x125;" horiz-adv-x="613" 
d="M70 0v710h127v-246c0 -25 -2 -43 -2 -43h2c25 49 87 101 176 101c113 0 177 -59 177 -194v-328h-126v302c0 62 -16 104 -81 104c-67 0 -119 -44 -138 -106c-6 -20 -8 -42 -8 -66v-234h-127zM-22 757l92 136h127l93 -136h-105l-50 81h-2l-50 -81h-105z" />
    <glyph glyph-name="Hbar" unicode="&#x126;" horiz-adv-x="805" 
d="M111 0v515h-61v83h61v112h129v-112h324v112h130v-112h62v-83h-62v-515h-130v298h-324v-298h-129zM240 409h324v106h-324v-106z" />
    <glyph glyph-name="hbar" unicode="&#x127;" horiz-adv-x="613" 
d="M4 559v76h66v75h127v-75h133v-76h-133v-95c0 -25 -2 -43 -2 -43h2c25 49 87 101 176 101c113 0 177 -59 177 -194v-328h-126v302c0 62 -16 104 -81 104c-67 0 -119 -44 -138 -106c-6 -20 -8 -42 -8 -66v-234h-127v559h-66z" />
    <glyph glyph-name="Itilde" unicode="&#x128;" horiz-adv-x="309" 
d="M90 0v710h129v-710h-129zM-26 758c0 91 37 137 112 137c67 0 85 -65 126 -65c28 0 39 30 39 62h86c0 -90 -36 -137 -112 -137c-67 0 -85 65 -126 65c-28 0 -38 -29 -38 -62h-87z" />
    <glyph glyph-name="itilde" unicode="&#x129;" horiz-adv-x="267" 
d="M-48 574c0 91 37 137 112 137c67 0 85 -65 126 -65c28 0 39 30 39 62h86c0 -90 -36 -137 -112 -137c-67 0 -85 65 -126 65c-28 0 -38 -29 -38 -62h-87zM70 0v510h127v-510h-127z" />
    <glyph glyph-name="Imacron" unicode="&#x12a;" horiz-adv-x="309" 
d="M90 0v710h129v-710h-129zM25 783v87h262v-87h-262z" />
    <glyph glyph-name="imacron" unicode="&#x12b;" horiz-adv-x="267" 
d="M3 599v87h262v-87h-262zM70 0v510h127v-510h-127z" />
    <glyph glyph-name="Ibreve" unicode="&#x12c;" horiz-adv-x="309" 
d="M90 0v710h129v-710h-129zM156 753c-79 0 -149 45 -149 128v12h90v-12c0 -41 29 -59 59 -59c28 0 58 18 58 60v11h90v-12c0 -83 -70 -128 -148 -128z" />
    <glyph glyph-name="ibreve" unicode="&#x12d;" horiz-adv-x="267" 
d="M134 569c-79 0 -149 45 -149 128v12h90v-12c0 -41 29 -59 59 -59c28 0 58 18 58 60v11h90v-12c0 -83 -70 -128 -148 -128zM70 0v510h127v-510h-127z" />
    <glyph glyph-name="Iogonek" unicode="&#x12e;" horiz-adv-x="309" 
d="M90 0v710h129v-710c-18 -16 -53 -50 -53 -78c0 -32 49 -36 49 -36l-30 -94s-123 11 -123 96c0 51 38 91 62 110v2h-34z" />
    <glyph glyph-name="iogonek" unicode="&#x12f;" horiz-adv-x="267" 
d="M70 0v510h127v-510c-19 -16 -53 -50 -53 -78c0 -32 49 -36 49 -36l-31 -94s-122 11 -122 96c0 51 38 91 62 110v2h-32zM70 597v113h126v-113h-126z" />
    <glyph glyph-name="Idotaccent" unicode="&#x130;" horiz-adv-x="309" 
d="M90 0v710h129v-710h-129zM102 782v111h108v-111h-108z" />
    <glyph glyph-name="dotlessi" unicode="&#x131;" horiz-adv-x="267" 
d="M70 0v510h127v-510h-127z" />
    <glyph glyph-name="IJ" unicode="&#x132;" horiz-adv-x="643" 
d="M301 -4v117c52 0 130 23 130 139v458h131v-460c0 -213 -143 -254 -261 -254zM90 0v710h129v-710h-129z" />
    <glyph glyph-name="ij" unicode="&#x133;" horiz-adv-x="538" 
d="M70 597v113h126v-113h-126zM70 0v510h127v-510h-127zM341 597v113h126v-113h-126zM341 510h127v-525c0 -171 -143 -192 -213 -192c-24 0 -39 3 -39 3v107s9 -2 22 -2c36 0 103 11 103 94v515z" />
    <glyph glyph-name="Jcircumflex" unicode="&#x134;" horiz-adv-x="547" 
d="M24 210v41h128v-33c0 -84 46 -112 94 -112s91 29 91 106v387h-183v111h312v-500c0 -155 -112 -222 -222 -222c-109 0 -220 69 -220 222zM151 757l92 136h127l93 -136h-105l-50 81h-2l-50 -81h-105z" />
    <glyph glyph-name="jcircumflex" unicode="&#x135;" horiz-adv-x="267" 
d="M70 510h127v-525c0 -171 -143 -192 -213 -192c-24 0 -39 3 -39 3v107s9 -2 22 -2c36 0 103 11 103 94v515zM-19 573l93 137h116l93 -137h-100l-50 82h-2l-50 -82h-100z" />
    <glyph glyph-name="Kcommaaccent" unicode="&#x136;" horiz-adv-x="647" 
d="M90 0v710h129v-289h92l167 289h140l-201 -338v-2l213 -370h-145l-174 310h-92v-310h-129zM277 -55h105c5 -20 7 -37 7 -54c0 -33 -9 -62 -26 -97h-94c12 32 20 59 20 87c0 19 -3 40 -12 64z" />
    <glyph glyph-name="kcommaaccent" unicode="&#x137;" horiz-adv-x="552" 
d="M70 0v710h127v-380h63l123 180h141l-161 -228v-2l181 -280h-146l-135 223h-66v-223h-127zM232 -55h105c5 -20 7 -37 7 -54c0 -33 -9 -62 -26 -97h-94c12 32 20 59 20 87c0 19 -3 40 -12 64z" />
    <glyph glyph-name="kgreenlandic" unicode="&#x138;" horiz-adv-x="553" 
d="M70 0v510h127v-192h62l129 192h142l-167 -239v-2l174 -269h-149l-126 211h-65v-211h-127z" />
    <glyph glyph-name="Lacute" unicode="&#x139;" horiz-adv-x="539" 
d="M90 0v710h129v-599h307v-111h-436zM100 757l76 136h131l-105 -136h-102z" />
    <glyph glyph-name="lacute" unicode="&#x13a;" horiz-adv-x="284" 
d="M63 159v551h126v-532c0 -56 19 -70 52 -70c10 0 19 1 19 1v-111s-19 -3 -40 -3c-70 0 -157 18 -157 164zM72 757l76 136h131l-105 -136h-102z" />
    <glyph glyph-name="Lcommaaccent" unicode="&#x13b;" horiz-adv-x="539" 
d="M90 0v710h129v-599h307v-111h-436zM259 -55h105c5 -20 7 -37 7 -54c0 -33 -9 -62 -26 -97h-94c12 32 20 59 20 87c0 19 -3 40 -12 64z" />
    <glyph glyph-name="lcommaaccent" unicode="&#x13c;" horiz-adv-x="284" 
d="M63 159v551h126v-532c0 -56 19 -70 52 -70c10 0 19 1 19 1v-111s-19 -3 -40 -3c-70 0 -157 18 -157 164zM110 -55h105c5 -20 7 -37 7 -54c0 -33 -9 -62 -26 -97h-94c12 32 20 59 20 87c0 19 -3 40 -12 64z" />
    <glyph glyph-name="Lcaron" unicode="&#x13d;" horiz-adv-x="539" 
d="M90 0v710h129v-599h307v-111h-436zM298 710h105c5 -20 7 -37 7 -54c0 -33 -9 -62 -26 -97h-94c12 32 20 59 20 87c0 19 -3 40 -12 64z" />
    <glyph glyph-name="lcaron" unicode="&#x13e;" horiz-adv-x="314" 
d="M63 159v551h126v-532c0 -56 19 -70 52 -70c10 0 19 1 19 1v-111s-19 -3 -40 -3c-70 0 -157 18 -157 164zM244 710h105c5 -20 7 -37 7 -54c0 -33 -9 -62 -26 -97h-94c12 32 20 59 20 87c0 19 -3 40 -12 64z" />
    <glyph glyph-name="Ldot" unicode="&#x13f;" horiz-adv-x="539" 
d="M90 0v710h129v-599h307v-111h-436zM326 323v126h123v-126h-123z" />
    <glyph glyph-name="ldot" unicode="&#x140;" horiz-adv-x="392" 
d="M63 159v551h126v-532c0 -56 19 -70 52 -70c10 0 19 1 19 1v-111s-19 -3 -40 -3c-70 0 -157 18 -157 164zM266 323v126h123v-126h-123z" />
    <glyph glyph-name="Lslash" unicode="&#x141;" horiz-adv-x="562" 
d="M57 231v124l56 32v323h129v-249l106 61v-124l-106 -61v-226h307v-111h-436v263z" />
    <glyph glyph-name="lslash" unicode="&#x142;" horiz-adv-x="338" 
d="M35 244v124l64 37v305h126v-233l77 45v-124l-77 -45v-175c0 -56 19 -70 52 -70c10 0 19 1 19 1v-111s-19 -3 -40 -3c-70 0 -157 18 -157 164v122z" />
    <glyph glyph-name="Nacute" unicode="&#x143;" horiz-adv-x="760" 
d="M90 0v710h129l269 -410c27 -41 59 -110 59 -110h2s-7 68 -7 110v410h128v-710h-128l-269 409c-27 41 -59 110 -59 110h-2s7 -68 7 -110v-409h-129zM326 757l76 136h131l-105 -136h-102z" />
    <glyph glyph-name="nacute" unicode="&#x144;" horiz-adv-x="613" 
d="M70 0v510h122v-59c0 -19 -2 -35 -2 -35h2c22 43 78 106 181 106c113 0 177 -59 177 -194v-328h-126v302c0 62 -16 104 -81 104c-68 0 -118 -43 -137 -104c-7 -21 -9 -44 -9 -68v-234h-127zM262 573l76 136h131l-105 -136h-102z" />
    <glyph glyph-name="Ncommaaccent" unicode="&#x145;" horiz-adv-x="760" 
d="M90 0v710h129l269 -410c27 -41 59 -110 59 -110h2s-7 68 -7 110v410h128v-710h-128l-269 409c-27 41 -59 110 -59 110h-2s7 -68 7 -110v-409h-129zM326 -55h105c5 -20 7 -37 7 -54c0 -33 -9 -62 -26 -97h-94c12 32 20 59 20 87c0 19 -3 40 -12 64z" />
    <glyph glyph-name="ncommaaccent" unicode="&#x146;" horiz-adv-x="613" 
d="M70 0v510h122v-59c0 -19 -2 -35 -2 -35h2c22 43 78 106 181 106c113 0 177 -59 177 -194v-328h-126v302c0 62 -16 104 -81 104c-68 0 -118 -43 -137 -104c-7 -21 -9 -44 -9 -68v-234h-127zM253 -55h105c5 -20 7 -37 7 -54c0 -33 -9 -62 -26 -97h-94c12 32 20 59 20 87
c0 19 -3 40 -12 64z" />
    <glyph glyph-name="Ncaron" unicode="&#x147;" horiz-adv-x="760" 
d="M90 0v710h129l269 -410c27 -41 59 -110 59 -110h2s-7 68 -7 110v410h128v-710h-128l-269 409c-27 41 -59 110 -59 110h-2s7 -68 7 -110v-409h-129zM317 757l-92 136h105l50 -81h2l50 81h105l-93 -136h-127z" />
    <glyph glyph-name="ncaron" unicode="&#x148;" horiz-adv-x="613" 
d="M70 0v510h122v-59c0 -19 -2 -35 -2 -35h2c22 43 78 106 181 106c113 0 177 -59 177 -194v-328h-126v302c0 62 -16 104 -81 104c-68 0 -118 -43 -137 -104c-7 -21 -9 -44 -9 -68v-234h-127zM253 573l-92 136h105l50 -81h2l50 81h105l-93 -136h-127z" />
    <glyph glyph-name="napostrophe" unicode="&#x149;" horiz-adv-x="613" 
d="M70 0v510h122v-59c0 -19 -2 -35 -2 -35h2c22 43 78 106 181 106c113 0 177 -59 177 -194v-328h-126v302c0 62 -16 104 -81 104c-68 0 -118 -43 -137 -104c-7 -21 -9 -44 -9 -68v-234h-127zM-11 710h105c5 -20 7 -37 7 -54c0 -33 -9 -62 -26 -97h-94c12 32 20 59 20 87
c0 19 -3 40 -12 64z" />
    <glyph glyph-name="Eng" unicode="&#x14a;" horiz-adv-x="760" 
d="M90 0v710h129l269 -410c27 -41 59 -110 59 -110h2s-7 68 -7 110v410h128v-667c0 -200 -139 -248 -257 -248v117c43 0 115 26 124 96l-264 401c-27 42 -59 110 -59 110h-2s7 -68 7 -110v-409h-129z" />
    <glyph glyph-name="eng" unicode="&#x14b;" horiz-adv-x="614" 
d="M70 0v510h123v-72c0 -11 -2 -22 -2 -22h2c22 43 77 106 180 106c113 0 178 -59 178 -194v-345c0 -171 -143 -192 -213 -192c-23 0 -39 3 -39 3v107s9 -1 22 -1c37 0 103 10 103 93v309c0 62 -16 104 -80 104c-68 0 -119 -43 -138 -104c-6 -21 -9 -44 -9 -68v-234h-127z
" />
    <glyph glyph-name="Omacron" unicode="&#x14c;" horiz-adv-x="816" 
d="M41 360c0 203 158 362 367 362s367 -159 367 -362c0 -209 -158 -372 -367 -372s-367 163 -367 372zM174 360c0 -146 104 -254 234 -254s234 108 234 254c0 140 -104 244 -234 244s-234 -104 -234 -244zM278 783v87h262v-87h-262z" />
    <glyph glyph-name="omacron" unicode="&#x14d;" horiz-adv-x="625" 
d="M32 255c0 156 125 267 280 267c156 0 281 -111 281 -267c0 -157 -125 -267 -280 -267c-156 0 -281 110 -281 267zM161 255c0 -95 69 -159 152 -159c82 0 151 64 151 159c0 94 -69 159 -151 159c-83 0 -152 -65 -152 -159zM182 599v87h262v-87h-262z" />
    <glyph glyph-name="Obreve" unicode="&#x14e;" horiz-adv-x="816" 
d="M41 360c0 203 158 362 367 362s367 -159 367 -362c0 -209 -158 -372 -367 -372s-367 163 -367 372zM174 360c0 -146 104 -254 234 -254s234 108 234 254c0 140 -104 244 -234 244s-234 -104 -234 -244zM408 753c-79 0 -149 45 -149 128v12h90v-12c0 -41 29 -59 59 -59
c28 0 58 18 58 60v11h90v-12c0 -83 -70 -128 -148 -128z" />
    <glyph glyph-name="obreve" unicode="&#x14f;" horiz-adv-x="625" 
d="M32 255c0 156 125 267 280 267c156 0 281 -111 281 -267c0 -157 -125 -267 -280 -267c-156 0 -281 110 -281 267zM161 255c0 -95 69 -159 152 -159c82 0 151 64 151 159c0 94 -69 159 -151 159c-83 0 -152 -65 -152 -159zM313 569c-79 0 -149 45 -149 128v12h90v-12
c0 -41 29 -59 59 -59c28 0 58 18 58 60v11h90v-12c0 -83 -70 -128 -148 -128z" />
    <glyph glyph-name="Ohungarumlaut" unicode="&#x150;" horiz-adv-x="816" 
d="M41 360c0 203 158 362 367 362s367 -159 367 -362c0 -209 -158 -372 -367 -372s-367 163 -367 372zM174 360c0 -146 104 -254 234 -254s234 108 234 254c0 140 -104 244 -234 244s-234 -104 -234 -244zM432 757l76 136h125l-104 -136h-97zM257 757l71 136h108l-74 -136
h-105z" />
    <glyph glyph-name="ohungarumlaut" unicode="&#x151;" horiz-adv-x="625" 
d="M32 255c0 156 125 267 280 267c156 0 281 -111 281 -267c0 -157 -125 -267 -280 -267c-156 0 -281 110 -281 267zM161 255c0 -95 69 -159 152 -159c82 0 151 64 151 159c0 94 -69 159 -151 159c-83 0 -152 -65 -152 -159zM336 573l76 136h125l-104 -136h-97zM161 573
l71 136h108l-74 -136h-105z" />
    <glyph glyph-name="OE" unicode="&#x152;" horiz-adv-x="968" 
d="M40 356c0 204 163 362 373 362c56 0 87 -8 126 -8h370v-111h-297v-186h240v-111h-240v-191h313v-111h-386c-38 0 -70 -9 -126 -9c-210 0 -373 161 -373 365zM173 356c0 -142 101 -254 240 -254c41 0 71 7 71 7v492s-30 7 -71 7c-139 0 -240 -112 -240 -252z" />
    <glyph glyph-name="oe" unicode="&#x153;" horiz-adv-x="984" 
d="M33 254c0 160 124 268 276 268c99 0 166 -42 211 -105h2c40 64 103 105 201 105c147 0 226 -107 226 -242c0 -15 -3 -49 -3 -49h-351c10 -92 77 -135 152 -135c82 0 147 56 147 56l49 -91s-78 -73 -205 -73c-106 0 -172 45 -213 108h-2c-45 -64 -113 -108 -214 -108
c-152 0 -276 105 -276 266zM598 318h223c-2 67 -44 106 -99 106c-66 0 -112 -40 -124 -106zM161 254c0 -97 69 -158 152 -158c82 0 151 61 151 159c0 97 -70 159 -151 159c-83 0 -152 -63 -152 -160z" />
    <glyph glyph-name="Racute" unicode="&#x154;" horiz-adv-x="658" 
d="M90 0v710h229c77 0 112 -6 143 -20c71 -32 116 -100 116 -194c0 -85 -45 -164 -120 -194v-2s10 -10 24 -35l146 -265h-144l-141 265h-124v-265h-129zM219 377h116c69 0 112 41 112 112c0 68 -29 110 -130 110h-98v-222zM259 757l76 136h131l-105 -136h-102z" />
    <glyph glyph-name="racute" unicode="&#x155;" horiz-adv-x="393" 
d="M70 0v510h122v-88c0 -19 -2 -36 -2 -36h2c23 73 84 131 162 131c12 0 23 -2 23 -2v-125s-13 2 -30 2c-54 0 -115 -31 -139 -107c-8 -25 -11 -53 -11 -83v-202h-127zM181 573l76 136h131l-105 -136h-102z" />
    <glyph glyph-name="Rcommaaccent" unicode="&#x156;" horiz-adv-x="658" 
d="M90 0v710h229c77 0 112 -6 143 -20c71 -32 116 -100 116 -194c0 -85 -45 -164 -120 -194v-2s10 -10 24 -35l146 -265h-144l-141 265h-124v-265h-129zM219 377h116c69 0 112 41 112 112c0 68 -29 110 -130 110h-98v-222zM280 -55h105c5 -20 7 -37 7 -54
c0 -33 -9 -62 -26 -97h-94c12 32 20 59 20 87c0 19 -3 40 -12 64z" />
    <glyph glyph-name="rcommaaccent" unicode="&#x157;" horiz-adv-x="393" 
d="M70 0v510h122v-88c0 -19 -2 -36 -2 -36h2c23 73 84 131 162 131c12 0 23 -2 23 -2v-125s-13 2 -30 2c-54 0 -115 -31 -139 -107c-8 -25 -11 -53 -11 -83v-202h-127zM80 -55h105c5 -20 7 -37 7 -54c0 -33 -9 -62 -26 -97h-94c12 32 20 59 20 87c0 19 -3 40 -12 64z" />
    <glyph glyph-name="Rcaron" unicode="&#x158;" horiz-adv-x="658" 
d="M90 0v710h229c77 0 112 -6 143 -20c71 -32 116 -100 116 -194c0 -85 -45 -164 -120 -194v-2s10 -10 24 -35l146 -265h-144l-141 265h-124v-265h-129zM219 377h116c69 0 112 41 112 112c0 68 -29 110 -130 110h-98v-222zM250 757l-92 136h105l50 -81h2l50 81h105l-93 -136
h-127z" />
    <glyph glyph-name="rcaron" unicode="&#x159;" horiz-adv-x="393" 
d="M70 0v510h122v-88c0 -19 -2 -36 -2 -36h2c23 73 84 131 162 131c12 0 23 -2 23 -2v-125s-13 2 -30 2c-54 0 -115 -31 -139 -107c-8 -25 -11 -53 -11 -83v-202h-127zM173 573l-92 136h105l50 -81h2l50 81h105l-93 -136h-127z" />
    <glyph glyph-name="Sacute" unicode="&#x15a;" horiz-adv-x="554" 
d="M36 85l70 97s77 -75 177 -75c54 0 103 28 103 86c0 127 -335 105 -335 323c0 118 102 206 238 206c140 0 212 -76 212 -76l-56 -105s-68 62 -157 62c-60 0 -107 -35 -107 -85c0 -126 334 -95 334 -322c0 -113 -86 -208 -234 -208c-158 0 -245 97 -245 97zM226 757l76 136
h131l-105 -136h-102z" />
    <glyph glyph-name="sacute" unicode="&#x15b;" horiz-adv-x="452" 
d="M27 63l58 89s56 -56 139 -56c36 0 67 16 67 46c0 76 -248 66 -248 230c0 95 85 150 195 150c115 0 171 -58 171 -58l-47 -94s-47 44 -125 44c-33 0 -65 -14 -65 -46c0 -72 248 -63 248 -227c0 -85 -74 -153 -195 -153c-127 0 -198 75 -198 75zM172 573l76 136h131
l-105 -136h-102z" />
    <glyph glyph-name="Scircumflex" unicode="&#x15c;" horiz-adv-x="554" 
d="M36 85l70 97s77 -75 177 -75c54 0 103 28 103 86c0 127 -335 105 -335 323c0 118 102 206 238 206c140 0 212 -76 212 -76l-56 -105s-68 62 -157 62c-60 0 -107 -35 -107 -85c0 -126 334 -95 334 -322c0 -113 -86 -208 -234 -208c-158 0 -245 97 -245 97zM125 757l92 136
h127l93 -136h-105l-50 81h-2l-50 -81h-105z" />
    <glyph glyph-name="scircumflex" unicode="&#x15d;" horiz-adv-x="452" 
d="M27 63l58 89s56 -56 139 -56c36 0 67 16 67 46c0 76 -248 66 -248 230c0 95 85 150 195 150c115 0 171 -58 171 -58l-47 -94s-47 44 -125 44c-33 0 -65 -14 -65 -46c0 -72 248 -63 248 -227c0 -85 -74 -153 -195 -153c-127 0 -198 75 -198 75zM72 573l92 136h127l93 -136
h-105l-50 81h-2l-50 -81h-105z" />
    <glyph glyph-name="Scedilla" unicode="&#x15e;" horiz-adv-x="554" 
d="M36 85l70 97s77 -75 177 -75c54 0 103 28 103 86c0 127 -335 105 -335 323c0 118 102 206 238 206c140 0 212 -76 212 -76l-56 -105s-68 62 -157 62c-60 0 -107 -35 -107 -85c0 -126 334 -95 334 -322c0 -105 -74 -194 -203 -206l-7 -34c41 -5 73 -29 73 -76
c0 -66 -54 -88 -108 -88c-34 0 -61 7 -61 7v70s21 -8 43 -8c24 0 44 7 44 28c0 19 -21 27 -48 27c-11 0 -21 -2 -21 -2l21 76c-137 11 -212 95 -212 95z" />
    <glyph glyph-name="scedilla" unicode="&#x15f;" horiz-adv-x="452" 
d="M27 63l58 89s56 -56 139 -56c36 0 67 16 67 46c0 76 -248 66 -248 230c0 95 85 150 195 150c115 0 171 -58 171 -58l-47 -94s-47 44 -125 44c-33 0 -65 -14 -65 -46c0 -72 248 -63 248 -227c0 -79 -63 -142 -168 -152l-7 -33c41 -5 73 -29 73 -76c0 -66 -54 -88 -108 -88
c-34 0 -61 7 -61 7v70s21 -8 43 -8c24 0 44 7 44 28c0 19 -21 27 -48 27c-11 0 -21 -2 -21 -2l21 76c-104 12 -161 73 -161 73z" />
    <glyph glyph-name="Scaron" unicode="&#x160;" horiz-adv-x="554" 
d="M36 85l70 97s77 -75 177 -75c54 0 103 28 103 86c0 127 -335 105 -335 323c0 118 102 206 238 206c140 0 212 -76 212 -76l-56 -105s-68 62 -157 62c-60 0 -107 -35 -107 -85c0 -126 334 -95 334 -322c0 -113 -86 -208 -234 -208c-158 0 -245 97 -245 97zM217 757
l-92 136h105l50 -81h2l50 81h105l-93 -136h-127z" />
    <glyph glyph-name="scaron" unicode="&#x161;" horiz-adv-x="452" 
d="M27 63l58 89s56 -56 139 -56c36 0 67 16 67 46c0 76 -248 66 -248 230c0 95 85 150 195 150c115 0 171 -58 171 -58l-47 -94s-47 44 -125 44c-33 0 -65 -14 -65 -46c0 -72 248 -63 248 -227c0 -85 -74 -153 -195 -153c-127 0 -198 75 -198 75zM164 573l-92 136h105
l50 -81h2l50 81h105l-93 -136h-127z" />
    <glyph glyph-name="Tcommaaccent" unicode="&#x162;" horiz-adv-x="603" 
d="M237 0v599h-233v111h595v-111h-233v-599h-33l-10 -44c41 -5 73 -29 73 -76c0 -66 -54 -88 -108 -88c-34 0 -61 7 -61 7v70s21 -8 43 -8c24 0 44 7 44 28c0 19 -21 27 -48 27c-11 0 -21 -2 -21 -2l24 86h-32z" />
    <glyph glyph-name="tcommaaccent" unicode="&#x163;" horiz-adv-x="378" 
d="M93 187v214h-66v101h69v147h124v-147h116v-101h-116v-198c0 -84 66 -96 101 -96c14 0 23 2 23 2v-111s-15 -3 -39 -3c-17 0 -38 1 -59 5l-10 -44c41 -5 73 -29 73 -76c0 -66 -54 -88 -108 -88c-34 0 -61 7 -61 7v70s21 -8 43 -8c24 0 44 7 44 28c0 19 -21 27 -48 27
c-11 0 -21 -2 -21 -2l29 105c-51 24 -94 73 -94 168z" />
    <glyph glyph-name="Tcaron" unicode="&#x164;" horiz-adv-x="603" 
d="M237 0v599h-233v111h595v-111h-233v-599h-129zM236 757l-92 136h105l50 -81h2l50 81h105l-93 -136h-127z" />
    <glyph glyph-name="tcaron" unicode="&#x165;" horiz-adv-x="377" 
d="M92 187v214h-66v101h69v147h124v-147h116v-101h-116v-198c0 -84 66 -96 101 -96c14 0 23 2 23 2v-111s-15 -3 -39 -3c-71 0 -212 21 -212 192zM272 710h105c5 -19 7 -35 7 -52c0 -31 -9 -59 -26 -93h-94c12 31 20 57 20 84c0 18 -3 38 -12 61z" />
    <glyph glyph-name="Tbar" unicode="&#x166;" horiz-adv-x="623" 
d="M96 295v96h151v208h-233v111h594v-111h-233v-208h156v-96h-156v-295h-128v295h-151z" />
    <glyph glyph-name="tbar" unicode="&#x167;" horiz-adv-x="399" 
d="M33 239v84h73v78h-66v101h69v147h124v-147h116v-101h-116v-78h109v-84h-109v-42c0 -78 66 -90 101 -90c14 0 23 2 23 2v-111s-15 -3 -39 -3c-71 0 -212 21 -212 192v52h-73z" />
    <glyph glyph-name="Utilde" unicode="&#x168;" horiz-adv-x="733" 
d="M80 255v455h129v-455c0 -95 62 -149 157 -149s158 54 158 150v454h129v-455c0 -159 -115 -267 -286 -267c-172 0 -287 108 -287 267zM185 758c0 91 37 137 112 137c67 0 85 -65 126 -65c28 0 39 30 39 62h86c0 -90 -36 -137 -112 -137c-67 0 -85 65 -126 65
c-28 0 -38 -29 -38 -62h-87z" />
    <glyph glyph-name="utilde" unicode="&#x169;" horiz-adv-x="609" 
d="M63 182v328h127v-302c0 -62 16 -104 79 -104c92 0 143 81 143 172v234h127v-510h-122v58c0 20 2 36 2 36h-2c-25 -53 -90 -106 -177 -106c-109 0 -177 55 -177 194zM120 574c0 91 37 137 112 137c67 0 85 -65 126 -65c28 0 39 30 39 62h86c0 -90 -36 -137 -112 -137
c-67 0 -85 65 -126 65c-28 0 -38 -29 -38 -62h-87z" />
    <glyph glyph-name="Umacron" unicode="&#x16a;" horiz-adv-x="733" 
d="M80 255v455h129v-455c0 -95 62 -149 157 -149s158 54 158 150v454h129v-455c0 -159 -115 -267 -286 -267c-172 0 -287 108 -287 267zM236 783v87h262v-87h-262z" />
    <glyph glyph-name="umacron" unicode="&#x16b;" horiz-adv-x="609" 
d="M63 182v328h127v-302c0 -62 16 -104 79 -104c92 0 143 81 143 172v234h127v-510h-122v58c0 20 2 36 2 36h-2c-25 -53 -90 -106 -177 -106c-109 0 -177 55 -177 194zM171 599v87h262v-87h-262z" />
    <glyph glyph-name="Ubreve" unicode="&#x16c;" horiz-adv-x="733" 
d="M80 255v455h129v-455c0 -95 62 -149 157 -149s158 54 158 150v454h129v-455c0 -159 -115 -267 -286 -267c-172 0 -287 108 -287 267zM367 753c-79 0 -149 45 -149 128v12h90v-12c0 -41 29 -59 59 -59c28 0 58 18 58 60v11h90v-12c0 -83 -70 -128 -148 -128z" />
    <glyph glyph-name="ubreve" unicode="&#x16d;" horiz-adv-x="609" 
d="M63 182v328h127v-302c0 -62 16 -104 79 -104c92 0 143 81 143 172v234h127v-510h-122v58c0 20 2 36 2 36h-2c-25 -53 -90 -106 -177 -106c-109 0 -177 55 -177 194zM302 569c-79 0 -149 45 -149 128v12h90v-12c0 -41 29 -59 59 -59c28 0 58 18 58 60v11h90v-12
c0 -83 -70 -128 -148 -128z" />
    <glyph glyph-name="Uring" unicode="&#x16e;" horiz-adv-x="733" 
d="M80 255v455h129v-455c0 -95 62 -149 157 -149s158 54 158 150v454h129v-455c0 -159 -115 -267 -286 -267c-172 0 -287 108 -287 267zM367 745c-48 0 -95 27 -95 78c0 52 47 79 95 79c47 0 94 -27 94 -79c0 -51 -47 -78 -94 -78zM367 789c20 0 34 14 34 34
c0 21 -14 35 -34 35s-34 -14 -34 -35c0 -20 13 -34 34 -34z" />
    <glyph glyph-name="uring" unicode="&#x16f;" horiz-adv-x="609" 
d="M63 182v328h127v-302c0 -62 16 -104 79 -104c92 0 143 81 143 172v234h127v-510h-122v58c0 20 2 36 2 36h-2c-25 -53 -90 -106 -177 -106c-109 0 -177 55 -177 194zM302 561c-48 0 -95 27 -95 78c0 52 47 79 95 79c47 0 94 -27 94 -79c0 -51 -47 -78 -94 -78zM302 605
c20 0 34 14 34 34c0 21 -14 35 -34 35s-34 -14 -34 -35c0 -20 13 -34 34 -34z" />
    <glyph glyph-name="Uhungarumlaut" unicode="&#x170;" horiz-adv-x="733" 
d="M80 255v455h129v-455c0 -95 62 -149 157 -149s158 54 158 150v454h129v-455c0 -159 -115 -267 -286 -267c-172 0 -287 108 -287 267zM390 757l76 136h125l-104 -136h-97zM215 757l71 136h108l-74 -136h-105z" />
    <glyph glyph-name="uhungarumlaut" unicode="&#x171;" horiz-adv-x="609" 
d="M63 182v328h127v-302c0 -62 16 -104 79 -104c92 0 143 81 143 172v234h127v-510h-122v58c0 20 2 36 2 36h-2c-25 -53 -90 -106 -177 -106c-109 0 -177 55 -177 194zM325 573l76 136h125l-104 -136h-97zM150 573l71 136h108l-74 -136h-105z" />
    <glyph glyph-name="Uogonek" unicode="&#x172;" horiz-adv-x="731" 
d="M321 -112c0 41 25 74 52 98v2h-7c-172 0 -286 108 -286 267v455h128v-455c0 -95 62 -149 157 -149s158 54 158 150v454h128v-455c0 -136 -75 -194 -139 -237c-45 -30 -86 -61 -86 -96c0 -32 48 -36 48 -36l-30 -94s-123 11 -123 96z" />
    <glyph glyph-name="uogonek" unicode="&#x173;" horiz-adv-x="609" 
d="M63 182v328h127v-302c0 -62 16 -104 79 -104c92 0 143 81 143 172v234h127v-510c-19 -16 -56 -50 -56 -78c0 -32 48 -36 48 -36l-30 -94s-123 11 -123 96c0 51 43 91 65 110v2h-26v58c0 20 2 36 2 36h-2c-25 -53 -90 -106 -177 -106c-109 0 -177 55 -177 194z" />
    <glyph glyph-name="Wcircumflex" unicode="&#x174;" horiz-adv-x="966" 
d="M538 710l126 -491c11 -41 12 -75 13 -75h2s3 35 12 75l117 491h133l-183 -710h-149l-109 420c-12 46 -18 93 -18 93h-2s-6 -47 -18 -93l-109 -420h-149l-178 710h133l112 -491c9 -40 12 -75 12 -75h2c1 0 2 34 13 75l128 491h112zM329 757l92 136h127l93 -136h-105
l-50 81h-2l-50 -81h-105z" />
    <glyph glyph-name="wcircumflex" unicode="&#x175;" horiz-adv-x="821" 
d="M170 0l-156 510h134l89 -335c7 -27 10 -54 10 -54h2s5 27 12 54l94 334h113l94 -334c7 -27 11 -54 11 -54h2s4 27 11 54l89 335h132l-155 -510h-141l-86 291c-8 27 -13 55 -13 55h-2s-4 -28 -12 -55l-86 -291h-142zM255 573l92 136h127l93 -136h-105l-50 81h-2l-50 -81
h-105z" />
    <glyph glyph-name="Ycircumflex" unicode="&#x176;" horiz-adv-x="605" 
d="M238 0v297l-236 413h146l111 -209c23 -44 42 -96 43 -95h2s20 51 43 95l110 209h146l-236 -413v-297h-129zM147 757l92 136h127l93 -136h-105l-50 81h-2l-50 -81h-105z" />
    <glyph glyph-name="ycircumflex" unicode="&#x177;" horiz-adv-x="521" 
d="M1 -177l42 95s28 -21 57 -21c35 0 69 21 88 66l19 45l-215 502h143l107 -294c10 -27 19 -69 19 -69h2s8 40 17 67l100 296h139l-228 -587c-36 -93 -107 -133 -184 -133c-61 0 -106 33 -106 33zM106 573l92 136h127l93 -136h-105l-50 81h-2l-50 -81h-105z" />
    <glyph glyph-name="Ydieresis" unicode="&#x178;" horiz-adv-x="605" 
d="M238 0v297l-236 413h146l111 -209c23 -44 42 -96 43 -95h2s20 51 43 95l110 209h146l-236 -413v-297h-129zM347 777v116h97v-116h-97zM163 777v116h98v-116h-98z" />
    <glyph glyph-name="Zacute" unicode="&#x179;" horiz-adv-x="614" 
d="M38 0v83l315 452c28 41 52 64 52 64v2s-20 -2 -53 -2h-298v111h513v-82l-315 -453c-28 -41 -52 -64 -52 -64v-2s20 2 53 2h318v-111h-533zM263 757l76 136h131l-105 -136h-102z" />
    <glyph glyph-name="zacute" unicode="&#x17a;" horiz-adv-x="524" 
d="M35 0v68l229 287c23 29 43 47 43 47v2s-15 -2 -47 -2h-215v108h434v-69l-229 -287c-23 -29 -44 -47 -44 -47v-2s15 3 48 3h232v-108h-451zM202 573l76 136h131l-105 -136h-102z" />
    <glyph glyph-name="Zdotaccent" unicode="&#x17b;" horiz-adv-x="614" 
d="M38 0v83l315 452c28 41 52 64 52 64v2s-20 -2 -53 -2h-298v111h513v-82l-315 -453c-28 -41 -52 -64 -52 -64v-2s20 2 53 2h318v-111h-533zM264 782v111h108v-111h-108z" />
    <glyph glyph-name="zdotaccent" unicode="&#x17c;" horiz-adv-x="524" 
d="M35 0v68l229 287c23 29 43 47 43 47v2s-15 -2 -47 -2h-215v108h434v-69l-229 -287c-23 -29 -44 -47 -44 -47v-2s15 3 48 3h232v-108h-451zM203 598v111h108v-111h-108z" />
    <glyph glyph-name="Zcaron" unicode="&#x17d;" horiz-adv-x="614" 
d="M38 0v83l315 452c28 41 52 64 52 64v2s-20 -2 -53 -2h-298v111h513v-82l-315 -453c-28 -41 -52 -64 -52 -64v-2s20 2 53 2h318v-111h-533zM254 757l-92 136h105l50 -81h2l50 81h105l-93 -136h-127z" />
    <glyph glyph-name="zcaron" unicode="&#x17e;" horiz-adv-x="524" 
d="M35 0v68l229 287c23 29 43 47 43 47v2s-15 -2 -47 -2h-215v108h434v-69l-229 -287c-23 -29 -44 -47 -44 -47v-2s15 3 48 3h232v-108h-451zM193 573l-92 136h105l50 -81h2l50 81h105l-93 -136h-127z" />
    <glyph glyph-name="longs" unicode="&#x17f;" horiz-adv-x="293" 
d="M96 0v401h-63v101h63v23c0 167 137 189 208 189c26 0 43 -3 43 -3v-108s-11 2 -26 2c-36 0 -98 -11 -98 -85v-520h-127z" />
    <glyph glyph-name="florin" unicode="&#x192;" horiz-adv-x="569" 
d="M20 -2c0 0 44 -6 67 -6c35 0 99 11 106 92l22 250h-75v101h83l10 97c17 168 152 190 224 190c35 0 86 -8 86 -8v-108s-54 7 -78 7c-37 0 -99 -12 -107 -93l-8 -85h108v-101h-117l-23 -262c-15 -168 -152 -189 -224 -189c-33 0 -74 7 -74 7v108z" />
    <glyph glyph-name="Scommaaccent" unicode="&#x218;" horiz-adv-x="554" 
d="M36 85l70 97s77 -75 177 -75c54 0 103 28 103 86c0 127 -335 105 -335 323c0 118 102 206 238 206c140 0 212 -76 212 -76l-56 -105s-68 62 -157 62c-60 0 -107 -35 -107 -85c0 -126 334 -95 334 -322c0 -113 -86 -208 -234 -208c-158 0 -245 97 -245 97zM219 -55h105
c5 -20 7 -37 7 -54c0 -33 -9 -62 -26 -97h-94c12 32 20 59 20 87c0 19 -3 40 -12 64z" />
    <glyph glyph-name="scommaaccent" unicode="&#x219;" horiz-adv-x="452" 
d="M27 63l58 89s56 -56 139 -56c36 0 67 16 67 46c0 76 -248 66 -248 230c0 95 85 150 195 150c115 0 171 -58 171 -58l-47 -94s-47 44 -125 44c-33 0 -65 -14 -65 -46c0 -72 248 -63 248 -227c0 -85 -74 -153 -195 -153c-127 0 -198 75 -198 75zM170 -55h105
c5 -20 7 -37 7 -54c0 -33 -9 -62 -26 -97h-94c12 32 20 59 20 87c0 19 -3 40 -12 64z" />
    <glyph glyph-name="uni021A" unicode="&#x21a;" horiz-adv-x="603" 
d="M237 0v599h-233v111h595v-111h-233v-599h-129zM242 -55h105c5 -20 7 -37 7 -54c0 -33 -9 -62 -26 -97h-94c12 32 20 59 20 87c0 19 -3 40 -12 64z" />
    <glyph glyph-name="uni021B" unicode="&#x21b;" horiz-adv-x="377" 
d="M92 187v214h-66v101h69v147h124v-147h116v-101h-116v-198c0 -84 66 -96 101 -96c14 0 23 2 23 2v-111s-15 -3 -39 -3c-71 0 -212 21 -212 192zM167 -55h105c5 -20 7 -37 7 -54c0 -33 -9 -62 -26 -97h-94c12 32 20 59 20 87c0 19 -3 40 -12 64z" />
    <glyph glyph-name="circumflex" unicode="&#x2c6;" horiz-adv-x="494" 
d="M91 757l92 136h127l93 -136h-105l-50 81h-2l-50 -81h-105z" />
    <glyph glyph-name="caron" unicode="&#x2c7;" horiz-adv-x="494" 
d="M183 757l-92 136h105l50 -81h2l50 81h105l-93 -136h-127z" />
    <glyph glyph-name="breve" unicode="&#x2d8;" horiz-adv-x="493" 
d="M247 753c-79 0 -149 45 -149 128v12h90v-12c0 -41 29 -59 59 -59c28 0 58 18 58 60v11h90v-12c0 -83 -70 -128 -148 -128z" />
    <glyph glyph-name="dotaccent" unicode="&#x2d9;" horiz-adv-x="494" 
d="M193 782v111h108v-111h-108z" />
    <glyph glyph-name="ring" unicode="&#x2da;" horiz-adv-x="494" 
d="M247 745c-48 0 -95 27 -95 78c0 52 47 79 95 79c47 0 94 -27 94 -79c0 -51 -47 -78 -94 -78zM247 789c20 0 34 14 34 34c0 21 -14 35 -34 35s-34 -14 -34 -35c0 -20 13 -34 34 -34z" />
    <glyph glyph-name="ogonek" unicode="&#x2db;" horiz-adv-x="494" 
d="M160 -112c0 80 102 137 102 137l72 -13s-69 -53 -69 -90c0 -32 49 -36 49 -36l-31 -94s-123 11 -123 96z" />
    <glyph glyph-name="tilde" unicode="&#x2dc;" horiz-adv-x="493" 
d="M65 758c0 91 37 137 112 137c67 0 85 -65 126 -65c28 0 39 30 39 62h86c0 -90 -36 -137 -112 -137c-67 0 -85 65 -126 65c-28 0 -38 -29 -38 -62h-87z" />
    <glyph glyph-name="hungarumlaut" unicode="&#x2dd;" horiz-adv-x="493" 
d="M234 757l76 136h125l-104 -136h-97zM59 757l71 136h108l-74 -136h-105z" />
    <glyph glyph-name="uni1E9E" unicode="&#x1e9e;" horiz-adv-x="700" 
d="M82 0v496c0 125 90 214 218 214h325v-89l-121 -181c-12 -18 -22 -31 -22 -31v-2l18 -1c96 -13 155 -106 155 -196c0 -118 -97 -210 -218 -210h-149v111h140c59 0 94 47 94 99s-35 97 -94 97h-84v89l89 141c28 46 45 62 45 62v2s-8 -2 -44 -2h-132c-52 0 -91 -44 -91 -101
v-498h-129z" />
    <glyph glyph-name="endash" unicode="&#x2013;" horiz-adv-x="709" 
d="M78 236v99h553v-99h-553z" />
    <glyph glyph-name="emdash" unicode="&#x2014;" horiz-adv-x="909" 
d="M78 236v99h753v-99h-753z" />
    <glyph glyph-name="quoteleft" unicode="&#x2018;" horiz-adv-x="237" 
d="M40 504l75 218h89l-47 -218h-117z" />
    <glyph glyph-name="quoteright" unicode="&#x2019;" horiz-adv-x="231" 
d="M44 503l47 219h117l-74 -219h-90z" />
    <glyph glyph-name="quotesinglbase" unicode="&#x201a;" horiz-adv-x="250" 
d="M32 -89l47 218h114l-75 -218h-86z" />
    <glyph glyph-name="quotedblleft" unicode="&#x201c;" horiz-adv-x="401" 
d="M204 504l74 218h90l-47 -218h-117zM40 504l75 218h90l-48 -218h-117z" />
    <glyph glyph-name="quotedblright" unicode="&#x201d;" 
d="M208 503l47 219h117l-74 -219h-90zM44 503l47 219h118l-75 -219h-90z" />
    <glyph glyph-name="quotedblbase" unicode="&#x201e;" horiz-adv-x="409" 
d="M192 -89l47 218h113l-74 -218h-86zM32 -89l47 218h114l-75 -218h-86z" />
    <glyph glyph-name="dagger" unicode="&#x2020;" horiz-adv-x="444" 
d="M160 -50v461h-124v99h124v200h122v-200h126v-99h-126v-461h-122z" />
    <glyph glyph-name="daggerdbl" unicode="&#x2021;" horiz-adv-x="476" 
d="M52 163v98h124v150h-124v99h124v200h122v-200h126v-99h-126v-150h126v-98h-126v-213h-122v213h-124z" />
    <glyph glyph-name="bullet" unicode="&#x2022;" horiz-adv-x="416" 
d="M208 124c-92 0 -167 75 -167 167s75 167 167 167c93 0 167 -75 167 -167s-74 -167 -167 -167z" />
    <glyph glyph-name="ellipsis" unicode="&#x2026;" horiz-adv-x="822" 
d="M634 0v127h123v-127h-123zM349 0v127h123v-127h-123zM65 0v127h122v-127h-122z" />
    <glyph glyph-name="perthousand" unicode="&#x2030;" horiz-adv-x="1165" 
d="M201 406c-90 0 -163 70 -163 158c0 86 73 158 163 158s164 -72 164 -158c0 -88 -74 -158 -164 -158zM63 0l545 710h117l-545 -710h-117zM201 498c37 0 67 29 67 66c0 36 -30 66 -67 66s-66 -30 -66 -66c0 -37 29 -66 66 -66zM799 145c0 86 72 158 163 158
c90 0 164 -72 164 -158c0 -87 -74 -157 -164 -157c-91 0 -163 70 -163 157zM426 145c0 86 72 158 163 158c90 0 163 -72 163 -158c0 -87 -73 -157 -163 -157c-91 0 -163 70 -163 157zM896 146c0 -37 29 -66 66 -66s67 29 67 66c0 36 -30 66 -67 66s-66 -30 -66 -66zM523 146
c0 -37 29 -66 66 -66s67 29 67 66c0 36 -30 66 -67 66s-66 -30 -66 -66z" />
    <glyph glyph-name="guilsinglleft" unicode="&#x2039;" horiz-adv-x="360" 
d="M199 77l-164 205l164 206h121l-164 -206l164 -205h-121z" />
    <glyph glyph-name="guilsinglright" unicode="&#x203a;" horiz-adv-x="360" 
d="M40 77l164 205l-164 206h121l164 -206l-164 -205h-121z" />
    <glyph glyph-name="fraction" unicode="&#x2044;" horiz-adv-x="179" 
d="M-32 0h-93l336 710h92z" />
    <glyph glyph-name="Euro" unicode="&#x20ac;" horiz-adv-x="589" 
d="M31 250v76h56c-3 16 -3 42 -1 62h-55v77h69c43 150 177 257 342 257c57 0 107 -13 107 -13l-31 -117s-38 10 -79 10c-95 0 -169 -53 -201 -137h255l-15 -77h-258c-3 -19 -2 -42 1 -62h244l-15 -76h-207c32 -85 109 -140 201 -140c50 0 92 14 92 14l24 -118
s-51 -18 -118 -18c-171 0 -301 107 -342 262h-69z" />
    <glyph glyph-name="trademark" unicode="&#x2122;" horiz-adv-x="946" 
d="M436 267l35 443h89l91 -209c7 -17 14 -42 14 -42h2s6 25 13 42l92 209h88l34 -443h-95l-17 228c-1 15 1 31 1 31h-2l-78 -178h-75l-78 178h-2s2 -16 1 -31l-18 -228h-95zM166 267v359h-148v84h391v-84h-147v-359h-96z" />
    <glyph glyph-name="minus" unicode="&#x2212;" horiz-adv-x="619" 
d="M46 236v99h528v-99h-528z" />
    <glyph glyph-name="infinity" unicode="&#x221e;" horiz-adv-x="517" 
d="M259 157c-105 0 -192 87 -192 192c0 106 87 191 192 191c106 0 190 -85 190 -191c0 -105 -84 -192 -190 -192z" />
    <glyph glyph-name="approxequal" unicode="&#x2248;" horiz-adv-x="619" 
d="M104 322l-49 74c37 38 94 76 156 76c94 0 127 -70 198 -70c40 0 81 26 107 55l50 -75c-37 -37 -93 -76 -157 -76c-94 0 -127 70 -198 70c-40 0 -80 -26 -107 -54zM104 117l-49 75c37 37 94 75 156 75c94 0 127 -70 198 -70c40 0 81 26 107 55l50 -75
c-37 -36 -93 -75 -157 -75c-94 0 -127 70 -198 70c-40 0 -80 -27 -107 -55z" />
    <glyph glyph-name="notequal" unicode="&#x2260;" horiz-adv-x="619" 
d="M118 63l49 71h-101v98h165l74 107h-239v98h304l76 112l61 -40l-50 -72h97v-98h-161l-74 -107h235v-98h-299l-75 -110z" />
    <glyph glyph-name="lessequal" unicode="&#x2264;" horiz-adv-x="619" 
d="M64 245v82l481 214v-111l-347 -143v-2l347 -143v-111zM66 -85h479v-98h-479v98z" />
    <glyph glyph-name="greaterequal" unicode="&#x2265;" horiz-adv-x="619" 
d="M75 31v111l347 143v2l-347 143v111l481 -214v-82zM75 -85h480v-98h-480v98z" />
    <glyph glyph-name="commaaccent" horiz-adv-x="335" 
d="M118 -55h105c5 -20 7 -37 7 -54c0 -33 -9 -62 -26 -97h-94c12 32 20 59 20 87c0 19 -3 40 -12 64z" />
    <glyph glyph-name="apple" horiz-adv-x="1130" 
d="M168 -5v152l-126 72v278l126 71v151l265 142l134 -71l132 71l265 -142v-151l124 -71v-278l-124 -72v-152l-265 -141l-132 71l-134 -71zM208 30l238 -126l121 66l118 -66l238 126v139l114 64v249l-114 66v136l-238 126l-118 -64l-121 64l-238 -126v-136l-114 -66v-249
l114 -64v-139zM242 64v121l-99 60v225l99 58v123l215 114l110 -59l107 59l214 -114v-123l100 -58v-225l-100 -60v-121l-214 -114l-107 58l-110 -58zM433 91h99v191h194v84h-194v151h125c18 0 21 -8 21 -24v-29h89v86c0 35 -12 51 -51 51h-337v-84h54v-426z" />
    <glyph glyph-name="zero.tnum" horiz-adv-x="584" 
d="M293 -12c-194 0 -257 164 -257 368s63 366 257 366s258 -162 258 -366s-64 -368 -258 -368zM293 106c97 0 125 110 125 250c0 138 -28 247 -125 247s-125 -109 -125 -247c0 -140 28 -250 125 -250z" />
    <glyph glyph-name="one.tnum" horiz-adv-x="584" 
d="M90 0v111h154v394c0 24 1 48 1 48h-2s-8 -17 -31 -40l-57 -54l-76 80l178 171h113v-599h154v-111h-434z" />
    <glyph glyph-name="two.tnum" horiz-adv-x="584" 
d="M65 0c-3 23 -6 43 -6 63c0 256 332 297 332 438c0 62 -48 99 -108 99c-83 0 -128 -84 -128 -84l-96 64s65 142 235 142c125 0 231 -76 231 -210c0 -228 -318 -267 -321 -401h332v-111h-471z" />
    <glyph glyph-name="three.tnum" horiz-adv-x="584" 
d="M47 83l66 99s67 -72 161 -72c74 0 128 45 128 106c0 75 -69 110 -152 110h-49l-29 66l130 154c28 33 51 54 51 54v2s-21 -3 -63 -3h-212v111h434v-81l-174 -201c98 -14 194 -84 194 -207c0 -121 -92 -233 -250 -233c-151 0 -235 95 -235 95z" />
    <glyph glyph-name="four.tnum" horiz-adv-x="584" 
d="M19 183v79l306 448h153v-420h92v-107h-92v-183h-127v183h-332zM155 290h196v220c0 35 5 74 5 74h-2s-16 -38 -35 -65l-164 -227v-2z" />
    <glyph glyph-name="five.tnum" horiz-adv-x="584" 
d="M48 84l66 97s59 -71 151 -71c69 0 134 46 134 121c0 74 -62 123 -143 123c-63 0 -110 -30 -110 -30l-71 26l33 360h373v-111h-262l-11 -117c-2 -19 -5 -33 -5 -33h2s33 16 76 16c157 0 250 -105 250 -233c0 -140 -108 -244 -256 -244c-150 0 -227 96 -227 96z" />
    <glyph glyph-name="six.tnum" horiz-adv-x="584" 
d="M315 -12c-148 0 -274 123 -274 337c0 186 107 397 327 397c90 0 145 -30 145 -30l-38 -111s-45 22 -100 22c-112 0 -171 -93 -189 -190h2c25 29 82 50 133 50c140 0 228 -109 228 -237c0 -132 -93 -238 -234 -238zM315 106c66 0 106 53 106 120c0 72 -45 131 -130 131
c-64 0 -116 -33 -116 -77c0 -89 65 -174 140 -174z" />
    <glyph glyph-name="seven.tnum" horiz-adv-x="584" 
d="M99 0l266 534c22 44 43 65 43 65v2s-14 -2 -49 -2h-303v111h488v-90l-311 -620h-134z" />
    <glyph glyph-name="eight.tnum" horiz-adv-x="584" 
d="M37 206c0 101 85 168 107 183c-43 33 -73 76 -73 139c0 98 72 194 228 194c132 0 230 -74 230 -197c0 -88 -72 -167 -79 -175c52 -33 91 -78 91 -151c0 -109 -91 -211 -250 -211c-154 0 -254 96 -254 218zM410 205c0 62 -89 90 -175 131c-23 -19 -66 -61 -66 -120
c0 -67 57 -114 122 -114c66 0 119 40 119 103zM198 525c0 -65 76 -93 157 -128c10 11 48 58 48 120c0 55 -42 90 -106 90c-65 0 -99 -36 -99 -82z" />
    <glyph glyph-name="nine.tnum" horiz-adv-x="584" 
d="M218 -12c-90 0 -145 30 -145 30l38 111s45 -23 99 -23c112 0 172 93 190 190h-2c-25 -29 -83 -50 -134 -50c-140 0 -227 110 -227 238c0 131 93 238 234 238c148 0 274 -123 274 -337c0 -186 -107 -397 -327 -397zM295 352c64 0 116 34 116 77c0 89 -66 174 -140 174
c-66 0 -107 -52 -107 -119c0 -72 45 -132 131 -132z" />
    <glyph glyph-name="hyphen.case" horiz-adv-x="491" 
d="M95 292v111h301v-111h-301z" />
    <glyph glyph-name="parenleft.case" horiz-adv-x="349" 
d="M310 -65h-108c-74 121 -119 274 -119 438c0 144 43 278 119 398h108c-74 -123 -113 -258 -113 -399c0 -149 38 -299 113 -437z" />
    <glyph glyph-name="parenright.case" horiz-adv-x="349" 
d="M147 -65h-108c75 138 113 288 113 437c0 141 -39 276 -113 399h108c76 -120 119 -254 119 -398c0 -164 -45 -317 -119 -438z" />
    <glyph glyph-name="bracketleft.case" horiz-adv-x="371" 
d="M111 -65v836h197v-92h-89v-652h89v-92h-197z" />
    <glyph glyph-name="bracketright.case" horiz-adv-x="371" 
d="M260 771v-836h-197v92h88v652h-88v92h197z" />
    <glyph glyph-name="braceleft.case" horiz-adv-x="417" 
d="M148 101v97c0 100 -85 104 -85 104v111s85 4 85 106v86c0 152 120 169 177 169c18 0 31 -1 31 -1v-94s-8 1 -18 1c-27 0 -82 -9 -82 -85v-109c0 -100 -82 -127 -82 -127v-2s82 -23 82 -126v-120c0 -77 55 -85 82 -85c10 0 18 1 18 1v-94s-13 -2 -31 -2
c-57 0 -177 17 -177 170z" />
    <glyph glyph-name="braceright.case" horiz-adv-x="417" 
d="M61 27c0 0 8 -1 18 -1c27 0 81 8 81 85v120c0 103 83 126 83 126v2s-83 27 -83 127v109c0 76 -54 85 -81 85c-10 0 -18 -1 -18 -1v94s13 1 31 1c57 0 177 -17 177 -169v-86c0 -102 85 -106 85 -106v-111s-85 -4 -85 -104v-97c0 -153 -120 -170 -177 -170
c-18 0 -31 2 -31 2v94z" />
    <glyph glyph-name="at.case" horiz-adv-x="848" 
d="M66 353c0 208 164 372 376 372c204 0 275 -102 275 -217v-250h73v-91h-277c-135 0 -215 90 -215 186c0 95 78 183 215 183h85c-2 52 -65 88 -152 88c-145 0 -255 -129 -255 -271c0 -146 104 -268 271 -268v-99c-238 0 -396 162 -396 367zM424 356c0 -54 39 -98 97 -98h77
v196h-75c-60 0 -99 -45 -99 -98z" />
    <glyph glyph-name="guillemotleft.case" horiz-adv-x="624" 
d="M443 137l-164 205l164 206h121l-164 -206l164 -205h-121zM219 137l-164 205l164 206h121l-164 -206l164 -205h-121z" />
    <glyph glyph-name="guillemotright.case" horiz-adv-x="625" 
d="M285 137l164 205l-164 206h121l164 -206l-164 -205h-121zM60 137l164 205l-164 206h121l164 -206l-164 -205h-121z" />
    <glyph glyph-name="guilsinglleft.case" horiz-adv-x="400" 
d="M219 137l-164 205l164 206h121l-164 -206l164 -205h-121z" />
    <glyph glyph-name="guilsinglright.case" horiz-adv-x="400" 
d="M60 137l164 205l-164 206h121l164 -206l-164 -205h-121z" />
    <glyph glyph-name="endash.case" horiz-adv-x="743" 
d="M95 296v99h553v-99h-553z" />
    <glyph glyph-name="emdash.case" horiz-adv-x="943" 
d="M95 296v99h753v-99h-753z" />
    <glyph glyph-name="periodcentered.case" horiz-adv-x="309" 
d="M93 282v127h123v-127h-123z" />
    <glyph glyph-name="questiondown.case" horiz-adv-x="523" 
d="M239 592v118h122v-118h-122zM64 176c0 164 175 184 175 292v37h122v-46c0 -145 -164 -169 -164 -271c0 -47 42 -84 97 -84c57 0 106 43 106 43l71 -88s-70 -71 -188 -71c-113 0 -219 69 -219 188z" />
    <glyph glyph-name="exclamdown.case" horiz-adv-x="357" 
d="M117 592v118h122v-118h-122zM112 0l11 505h111l10 -505h-132z" />
    <glyph glyph-name="bullet.case" horiz-adv-x="456" 
d="M228 187c-92 0 -167 75 -167 167c0 93 75 167 167 167c93 0 167 -74 167 -167c0 -92 -74 -167 -167 -167z" />
    <glyph glyph-name="zero.p_osf" horiz-adv-x="586" 
d="M46 274c0 144 75 288 247 288c173 0 246 -145 246 -289s-73 -285 -246 -285s-247 143 -247 286zM174 275c0 -89 33 -179 119 -179s119 89 119 178s-34 180 -119 180c-86 0 -119 -90 -119 -179z" />
    <glyph glyph-name="one.p_osf" horiz-adv-x="493" 
d="M61 0v108h148v249c0 27 1 65 1 65h-2s-15 -16 -38 -30l-77 -45l-58 87l187 116h110v-442h136v-108h-407z" />
    <glyph glyph-name="two.p_osf" horiz-adv-x="541" 
d="M52 0v86c136 88 292 196 292 284c0 58 -47 81 -96 81c-78 0 -144 -73 -144 -73l-67 83s84 101 228 101c113 0 208 -66 208 -175c0 -120 -102 -202 -235 -281v-2s21 4 63 4h198v-108h-447z" />
    <glyph glyph-name="three.p_osf" horiz-adv-x="524" 
d="M10 -40l60 89s64 -69 155 -69c73 0 128 40 128 103c0 77 -81 109 -149 109h-55l-28 62l119 138c27 31 51 51 51 51v2s-22 -4 -63 -4h-180v109h410v-74l-176 -193c97 -12 199 -73 199 -192c0 -120 -94 -219 -252 -219c-143 0 -219 88 -219 88z" />
    <glyph glyph-name="four.p_osf" horiz-adv-x="600" 
d="M24 29v79l289 442h158v-413h95v-108h-95v-145h-127v145h-320zM159 137h185v217c0 35 5 74 5 74h-2s-16 -40 -35 -67z" />
    <glyph glyph-name="five.p_osf" horiz-adv-x="536" 
d="M24 -36l60 88s59 -68 149 -68c66 0 137 37 137 114s-65 118 -138 118c-65 0 -113 -27 -113 -27l-68 25l33 336h360v-109h-252l-11 -108c-2 -18 -5 -31 -5 -31h2s34 14 77 14c148 0 243 -89 243 -212c0 -140 -109 -228 -255 -228c-144 0 -219 88 -219 88z" />
    <glyph glyph-name="six.p_osf" horiz-adv-x="585" 
d="M52 298c0 177 101 380 319 380c90 0 145 -28 145 -28l-37 -101s-46 21 -100 21c-109 0 -170 -93 -187 -185h2c25 30 83 49 134 49c138 0 224 -101 224 -221c0 -123 -92 -225 -230 -225c-148 0 -270 109 -270 310zM182 261c0 -81 58 -165 139 -165c65 0 104 48 104 116
c0 67 -44 122 -127 122c-63 0 -116 -32 -116 -73z" />
    <glyph glyph-name="seven.p_osf" horiz-adv-x="526" 
d="M72 -116l253 498c21 42 37 61 37 61v2s-11 -3 -46 -3h-289v108h476v-85l-297 -581h-134z" />
    <glyph glyph-name="eight.p_osf" horiz-adv-x="586" 
d="M45 193c0 88 75 150 104 171c-42 31 -72 72 -72 131c0 93 71 182 221 182c127 0 225 -69 225 -184c0 -82 -65 -156 -73 -166c50 -31 88 -73 88 -140c0 -103 -91 -199 -246 -199c-149 0 -247 91 -247 205zM410 191c0 58 -85 85 -170 123c-24 -17 -69 -56 -69 -111
c0 -64 57 -108 121 -108c65 0 118 38 118 96zM199 493c0 -62 75 -88 155 -120c11 13 46 56 46 112c0 52 -42 85 -103 85c-63 0 -98 -34 -98 -77z" />
    <glyph glyph-name="nine.p_osf" horiz-adv-x="588" 
d="M108 1c0 0 46 -21 100 -21c109 0 170 93 187 184h-2c-25 -29 -83 -48 -134 -48c-138 0 -224 100 -224 220c0 124 91 226 230 226c148 0 270 -109 270 -311c0 -177 -102 -379 -319 -379c-90 0 -146 28 -146 28zM289 216c63 0 115 31 115 72c0 82 -58 166 -138 166
c-65 0 -105 -48 -105 -116c0 -67 45 -122 128 -122z" />
    <glyph glyph-name="zero.t_osf" horiz-adv-x="584" 
d="M46 274c0 144 75 288 247 288c173 0 246 -145 246 -289s-73 -285 -246 -285s-247 143 -247 286zM174 275c0 -89 33 -179 119 -179s119 89 119 178s-34 180 -119 180c-86 0 -119 -90 -119 -179z" />
    <glyph glyph-name="one.t_osf" horiz-adv-x="584" 
d="M113 0v108h148v249c0 27 1 65 1 65h-2s-15 -16 -38 -30l-77 -45l-58 87l187 116h110v-442h136v-108h-407z" />
    <glyph glyph-name="two.t_osf" horiz-adv-x="584" 
d="M78 0v86c136 88 292 196 292 284c0 58 -47 81 -96 81c-78 0 -144 -73 -144 -73l-67 83s84 101 228 101c113 0 208 -66 208 -175c0 -120 -102 -202 -235 -281v-2s21 4 63 4h198v-108h-447z" />
    <glyph glyph-name="three.t_osf" horiz-adv-x="584" 
d="M50 -39l60 89s64 -69 154 -69c73 0 128 40 128 103c0 77 -81 108 -149 108h-54l-28 62l118 138c27 31 51 51 51 51v2s-22 -4 -63 -4h-179v109h409v-74l-176 -193c97 -12 199 -73 199 -191c0 -120 -94 -219 -252 -219c-142 0 -218 88 -218 88z" />
    <glyph glyph-name="four.t_osf" horiz-adv-x="584" 
d="M24 29v79l289 442h158v-413h95v-108h-95v-145h-127v145h-320zM159 137h185v217c0 35 5 74 5 74h-2s-16 -40 -35 -67z" />
    <glyph glyph-name="five.t_osf" horiz-adv-x="584" 
d="M54 -36l60 88s59 -68 149 -68c66 0 137 37 137 114s-65 118 -138 118c-65 0 -113 -27 -113 -27l-68 25l33 336h360v-109h-252l-11 -108c-2 -18 -5 -31 -5 -31h2s34 14 77 14c148 0 243 -89 243 -212c0 -140 -109 -228 -255 -228c-144 0 -219 88 -219 88z" />
    <glyph glyph-name="six.t_osf" horiz-adv-x="584" 
d="M43 298c0 177 101 380 319 380c90 0 145 -28 145 -28l-37 -101s-46 21 -100 21c-109 0 -170 -93 -187 -185h2c25 30 83 49 134 49c138 0 224 -101 224 -221c0 -123 -92 -225 -230 -225c-148 0 -270 109 -270 310zM173 261c0 -81 58 -165 139 -165c65 0 104 48 104 116
c0 67 -44 122 -127 122c-63 0 -116 -32 -116 -73z" />
    <glyph glyph-name="seven.t_osf" horiz-adv-x="584" 
d="M100 -116l253 498c21 42 37 61 37 61v2s-11 -3 -46 -3h-289v108h476v-85l-297 -581h-134z" />
    <glyph glyph-name="eight.t_osf" horiz-adv-x="584" 
d="M43 193c0 88 75 150 104 171c-42 31 -72 72 -72 131c0 93 71 182 221 182c127 0 225 -69 225 -184c0 -82 -65 -156 -73 -166c50 -31 88 -73 88 -140c0 -103 -91 -199 -246 -199c-149 0 -247 91 -247 205zM408 191c0 58 -85 85 -170 123c-24 -17 -69 -56 -69 -111
c0 -64 57 -108 121 -108c65 0 118 38 118 96zM197 493c0 -62 75 -88 155 -120c11 13 46 56 46 112c0 52 -42 85 -103 85c-63 0 -98 -34 -98 -77z" />
    <glyph glyph-name="nine.t_osf" horiz-adv-x="584" 
d="M115 1c0 0 46 -21 100 -21c109 0 170 93 187 184h-2c-25 -29 -83 -48 -134 -48c-138 0 -224 100 -224 220c0 124 91 226 230 226c148 0 270 -109 270 -311c0 -177 -102 -379 -319 -379c-90 0 -146 28 -146 28zM296 216c63 0 115 31 115 72c0 82 -58 166 -138 166
c-65 0 -105 -48 -105 -116c0 -67 45 -122 128 -122z" />
    <glyph glyph-name="dollar.osf" horiz-adv-x="532" 
d="M43 84l62 94s69 -77 157 -77c55 0 91 22 91 62c0 87 -290 79 -290 261c0 92 72 150 169 165v89h85v-88c103 -10 155 -62 155 -62l-49 -101s-57 53 -136 53c-52 0 -92 -16 -92 -62c0 -84 290 -71 290 -257c0 -85 -66 -154 -172 -169v-93h-85v92c-119 14 -185 93 -185 93z
" />
    <glyph glyph-name="cent.osf" horiz-adv-x="553" 
d="M45 299c0 119 78 219 205 244v84h89v-79c108 -10 168 -78 168 -78l-58 -93s-51 60 -127 60c-94 0 -150 -63 -150 -136c0 -76 56 -139 150 -139c76 0 127 59 127 59l58 -92s-61 -69 -168 -79v-78h-89v83c-127 24 -205 124 -205 244z" />
    <glyph glyph-name="sterling.osf" horiz-adv-x="621" 
d="M52 0v108h59v129h-44v84h44v70c0 117 102 202 235 202c110 0 182 -57 182 -57l-57 -93s-58 37 -122 37s-110 -40 -110 -91v-68h202v-84h-202v-129h311v-108h-498z" />
    <glyph glyph-name="yen.osf" horiz-adv-x="640" 
d="M91 287v76h82l-129 218h146l85 -158c23 -42 43 -98 43 -98h2s20 55 43 98l84 158h146l-129 -218h87v-76h-132l-36 -63v-4h168v-76h-168v-144h-129v144h-163v76h163v4l-37 63h-126z" />
    <glyph glyph-name="florin.osf" horiz-adv-x="571" 
d="M20 -12c0 0 44 -6 67 -6c36 0 99 11 106 92l19 215h-75v101h84l9 99c15 167 151 189 224 189c35 0 86 -8 86 -8v-108s-54 7 -79 7c-36 0 -99 -11 -107 -92l-8 -87h109v-101h-118l-19 -227c-15 -168 -152 -189 -224 -189c-33 0 -74 7 -74 7v108z" />
    <glyph glyph-name="Euro.osf" horiz-adv-x="599" 
d="M49 192v70h64c-1 10 -2 21 -2 32c0 7 0 15 1 23h-63v70h76c35 112 136 206 308 206c56 0 99 -12 99 -12l-28 -102s-34 10 -73 10c-88 0 -145 -44 -173 -102h227l-15 -70h-231c-1 -8 -1 -15 -1 -22c0 -11 1 -22 2 -33h222l-14 -70h-185c31 -57 88 -98 172 -98
c49 0 87 14 87 14l21 -103s-47 -17 -110 -17c-165 0 -268 91 -306 204h-78z" />
    <glyph glyph-name="zero.numerator" 
d="M198 261c-123 0 -163 101 -163 230c0 128 40 229 163 229s162 -101 162 -229c0 -129 -39 -230 -162 -230zM198 348c51 0 66 63 66 143c0 78 -15 141 -66 141c-52 0 -67 -63 -67 -141c0 -80 15 -143 67 -143z" />
    <glyph glyph-name="one.numerator" 
d="M67 271v83h92v207c0 16 2 28 2 28h-2s-4 -9 -15 -19l-31 -29l-56 60l113 109h84v-356h91v-83h-278z" />
    <glyph glyph-name="two.numerator" 
d="M48 271c-2 14 -4 29 -4 41c0 173 207 181 207 268c0 31 -27 52 -62 52c-45 0 -79 -46 -79 -46l-62 55s47 79 147 79c80 0 152 -49 152 -136c0 -143 -190 -157 -198 -230h204v-83h-305z" />
    <glyph glyph-name="three.numerator" 
d="M185 261c-101 0 -149 67 -149 67l50 67s35 -47 97 -47c39 0 72 27 72 63c0 38 -38 57 -78 57h-35l-20 45l79 90c8 10 24 24 24 24v2s-20 -3 -35 -3h-129v84h280v-61l-99 -112c63 -12 109 -55 109 -127c0 -77 -63 -149 -166 -149z" />
    <glyph glyph-name="four.numerator" 
d="M224 271v99h-204v64l189 276h108v-258h58v-82h-58v-99h-93zM117 452h107v110c0 26 3 55 3 55h-2s-12 -27 -26 -47l-82 -116v-2z" />
    <glyph glyph-name="five.numerator" 
d="M191 261c-98 0 -151 67 -151 67l52 67s33 -47 92 -47c40 0 77 27 77 68c0 40 -35 69 -79 69c-42 0 -71 -18 -71 -18l-51 19l22 224h245v-84h-168l-4 -47c-2 -16 -5 -25 -5 -25l2 -1s21 8 51 8c92 0 154 -67 154 -146s-62 -154 -166 -154z" />
    <glyph glyph-name="six.numerator" 
d="M211 261c-93 0 -172 73 -172 205c0 118 66 254 203 254c57 0 98 -23 98 -23l-27 -81s-35 16 -66 16c-52 0 -88 -41 -100 -97h2c16 13 41 21 63 21c93 0 150 -63 150 -144c0 -84 -60 -151 -151 -151zM211 348c36 0 56 30 56 65c0 39 -24 74 -70 74c-33 0 -61 -19 -61 -40
c0 -51 32 -99 75 -99z" />
    <glyph glyph-name="seven.numerator" 
d="M51 271l175 317c14 24 24 38 24 38v2s-18 -2 -39 -2h-167v84h314v-65l-203 -374h-104z" />
    <glyph glyph-name="eight.numerator" 
d="M33 398c0 54 46 94 68 110c-28 21 -47 49 -47 90c0 81 72 122 146 122s149 -42 149 -123c0 -54 -46 -101 -53 -108c35 -21 62 -50 62 -99c0 -80 -77 -129 -160 -129c-82 0 -165 46 -165 137zM263 395c0 38 -50 55 -101 79c-15 -14 -37 -39 -37 -71c0 -39 35 -61 72 -61
c32 0 66 20 66 53zM145 594c0 -37 40 -54 86 -74c8 10 29 38 29 71c0 31 -31 47 -60 47c-28 0 -55 -13 -55 -44z" />
    <glyph glyph-name="nine.numerator" 
d="M34 569c0 84 59 151 150 151c94 0 173 -74 173 -206c0 -117 -66 -253 -204 -253c-57 0 -98 23 -98 23l28 81s34 -16 65 -16c52 0 88 40 101 96h-2c-16 -12 -42 -21 -63 -21c-94 0 -150 64 -150 145zM128 568c0 -39 25 -75 70 -75c34 0 61 20 61 40c0 51 -32 99 -75 99
c-36 0 -56 -29 -56 -64z" />
    <glyph glyph-name="zerosuperior" unicode="&#x2070;" 
d="M198 413c-123 0 -163 101 -163 230c0 128 40 229 163 229s162 -101 162 -229c0 -129 -39 -230 -162 -230zM198 500c51 0 66 63 66 143c0 78 -15 141 -66 141c-52 0 -67 -63 -67 -141c0 -80 15 -143 67 -143z" />
    <glyph glyph-name="foursuperior" unicode="&#x2074;" 
d="M224 423v99h-204v64l189 276h108v-258h58v-82h-58v-99h-93zM117 604h107v110c0 26 3 55 3 55h-2s-12 -27 -26 -47l-82 -116v-2z" />
    <glyph glyph-name="fivesuperior" unicode="&#x2075;" 
d="M191 413c-98 0 -151 67 -151 67l52 67s33 -47 92 -47c40 0 77 27 77 68c0 40 -35 69 -79 69c-42 0 -71 -18 -71 -18l-51 19l22 224h245v-84h-168l-4 -47c-2 -16 -5 -25 -5 -25l2 -1s21 8 51 8c92 0 154 -67 154 -146s-62 -154 -166 -154z" />
    <glyph glyph-name="sixsuperior" unicode="&#x2076;" 
d="M211 413c-93 0 -172 73 -172 205c0 118 66 254 203 254c57 0 98 -23 98 -23l-27 -81s-35 16 -66 16c-52 0 -88 -41 -100 -97h2c16 13 41 21 63 21c93 0 150 -63 150 -144c0 -84 -60 -151 -151 -151zM211 500c36 0 56 30 56 65c0 39 -24 74 -70 74c-33 0 -61 -19 -61 -40
c0 -51 32 -99 75 -99z" />
    <glyph glyph-name="sevensuperior" unicode="&#x2077;" 
d="M51 423l175 317c14 24 24 38 24 38v2s-18 -2 -39 -2h-167v84h314v-65l-203 -374h-104z" />
    <glyph glyph-name="eightsuperior" unicode="&#x2078;" 
d="M33 550c0 54 46 94 68 110c-28 21 -47 49 -47 90c0 81 72 122 146 122s149 -42 149 -123c0 -54 -46 -101 -53 -108c35 -21 62 -50 62 -99c0 -80 -77 -129 -160 -129c-82 0 -165 46 -165 137zM263 547c0 38 -50 55 -101 79c-15 -14 -37 -39 -37 -71c0 -39 35 -61 72 -61
c32 0 66 20 66 53zM145 746c0 -37 40 -54 86 -74c8 10 29 38 29 71c0 31 -31 47 -60 47c-28 0 -55 -13 -55 -44z" />
    <glyph glyph-name="ninesuperior" unicode="&#x2079;" 
d="M34 721c0 84 59 151 150 151c94 0 173 -74 173 -206c0 -117 -66 -253 -204 -253c-57 0 -98 23 -98 23l28 81s34 -16 65 -16c52 0 88 40 101 96h-2c-16 -12 -42 -21 -63 -21c-94 0 -150 64 -150 145zM128 720c0 -39 25 -75 70 -75c34 0 61 20 61 40c0 51 -32 99 -75 99
c-36 0 -56 -29 -56 -64z" />
    <glyph glyph-name="zeroinferior" unicode="&#x2080;" 
d="M198 -167c-123 0 -163 101 -163 230c0 128 40 229 163 229s162 -101 162 -229c0 -129 -39 -230 -162 -230zM198 -80c51 0 66 63 66 143c0 78 -15 141 -66 141c-52 0 -67 -63 -67 -141c0 -80 15 -143 67 -143z" />
    <glyph glyph-name="oneinferior" unicode="&#x2081;" 
d="M67 -157v83h92v207c0 16 2 28 2 28h-2s-4 -9 -15 -19l-31 -29l-56 60l113 109h84v-356h91v-83h-278z" />
    <glyph glyph-name="twoinferior" unicode="&#x2082;" 
d="M48 -157c-2 14 -4 29 -4 41c0 173 207 181 207 268c0 31 -27 52 -62 52c-45 0 -79 -46 -79 -46l-62 55s47 79 147 79c80 0 152 -49 152 -136c0 -143 -190 -157 -198 -230h204v-83h-305z" />
    <glyph glyph-name="threeinferior" unicode="&#x2083;" 
d="M185 -167c-101 0 -149 67 -149 67l50 67s35 -47 97 -47c39 0 72 27 72 63c0 38 -38 57 -78 57h-35l-20 45l79 90c8 10 24 24 24 24v2s-20 -3 -35 -3h-129v84h280v-61l-99 -112c63 -12 109 -55 109 -127c0 -77 -63 -149 -166 -149z" />
    <glyph glyph-name="fourinferior" unicode="&#x2084;" 
d="M224 -157v99h-204v64l189 276h108v-258h58v-82h-58v-99h-93zM117 24h107v110c0 26 3 55 3 55h-2s-12 -27 -26 -47l-82 -116v-2z" />
    <glyph glyph-name="fiveinferior" unicode="&#x2085;" 
d="M191 -167c-98 0 -151 67 -151 67l52 67s33 -47 92 -47c40 0 77 27 77 68c0 40 -35 69 -79 69c-42 0 -71 -18 -71 -18l-51 19l22 224h245v-84h-168l-4 -47c-2 -16 -5 -25 -5 -25l2 -1s21 8 51 8c92 0 154 -67 154 -146s-62 -154 -166 -154z" />
    <glyph glyph-name="sixinferior" unicode="&#x2086;" 
d="M211 -167c-93 0 -172 73 -172 205c0 118 66 254 203 254c57 0 98 -23 98 -23l-27 -81s-35 16 -66 16c-52 0 -88 -41 -100 -97h2c16 13 41 21 63 21c93 0 150 -63 150 -144c0 -84 -60 -151 -151 -151zM211 -80c36 0 56 30 56 65c0 39 -24 74 -70 74c-33 0 -61 -19 -61 -40
c0 -51 32 -99 75 -99z" />
    <glyph glyph-name="seveninferior" unicode="&#x2087;" 
d="M51 -157l175 317c14 24 24 38 24 38v2s-18 -2 -39 -2h-167v84h314v-65l-203 -374h-104z" />
    <glyph glyph-name="eightinferior" unicode="&#x2088;" 
d="M33 -30c0 54 46 94 68 110c-28 21 -47 49 -47 90c0 81 72 122 146 122s149 -42 149 -123c0 -54 -46 -101 -53 -108c35 -21 62 -50 62 -99c0 -80 -77 -129 -160 -129c-82 0 -165 46 -165 137zM263 -33c0 38 -50 55 -101 79c-15 -14 -37 -39 -37 -71c0 -39 35 -61 72 -61
c32 0 66 20 66 53zM145 166c0 -37 40 -54 86 -74c8 10 29 38 29 71c0 31 -31 47 -60 47c-28 0 -55 -13 -55 -44z" />
    <glyph glyph-name="nineinferior" unicode="&#x2089;" 
d="M34 141c0 84 59 151 150 151c94 0 173 -74 173 -206c0 -117 -66 -253 -204 -253c-57 0 -98 23 -98 23l28 81s34 -16 65 -16c52 0 88 40 101 96h-2c-16 -12 -42 -21 -63 -21c-94 0 -150 64 -150 145zM128 140c0 -39 25 -75 70 -75c34 0 61 20 61 40c0 51 -32 99 -75 99
c-36 0 -56 -29 -56 -64z" />
    <glyph glyph-name="zero.denominator" 
d="M198 -10c-123 0 -163 101 -163 230c0 128 40 229 163 229s162 -101 162 -229c0 -129 -39 -230 -162 -230zM198 77c51 0 66 63 66 143c0 78 -15 141 -66 141c-52 0 -67 -63 -67 -141c0 -80 15 -143 67 -143z" />
    <glyph glyph-name="one.denominator" 
d="M67 0v83h92v207c0 16 2 28 2 28h-2s-4 -9 -15 -19l-31 -29l-56 60l113 109h84v-356h91v-83h-278z" />
    <glyph glyph-name="two.denominator" 
d="M48 0c-2 14 -4 29 -4 41c0 173 207 181 207 268c0 31 -27 52 -62 52c-45 0 -79 -46 -79 -46l-62 55s47 79 147 79c80 0 152 -49 152 -136c0 -143 -190 -157 -198 -230h204v-83h-305z" />
    <glyph glyph-name="three.denominator" 
d="M185 -10c-101 0 -149 67 -149 67l50 67s35 -47 97 -47c39 0 72 27 72 63c0 38 -38 57 -78 57h-35l-20 45l79 90c8 10 24 24 24 24v2s-20 -3 -35 -3h-129v84h280v-61l-99 -112c63 -12 109 -55 109 -127c0 -77 -63 -149 -166 -149z" />
    <glyph glyph-name="four.denominator" 
d="M224 0v99h-204v64l189 276h108v-258h58v-82h-58v-99h-93zM117 181h107v110c0 26 3 55 3 55h-2s-12 -27 -26 -47l-82 -116v-2z" />
    <glyph glyph-name="five.denominator" 
d="M191 -10c-98 0 -151 67 -151 67l52 67s33 -47 92 -47c40 0 77 27 77 68c0 40 -35 69 -79 69c-42 0 -71 -18 -71 -18l-51 19l22 224h245v-84h-168l-4 -47c-2 -16 -5 -25 -5 -25l2 -1s21 8 51 8c92 0 154 -67 154 -146s-62 -154 -166 -154z" />
    <glyph glyph-name="six.denominator" 
d="M211 -10c-93 0 -172 73 -172 205c0 118 66 254 203 254c57 0 98 -23 98 -23l-27 -81s-35 16 -66 16c-52 0 -88 -41 -100 -97h2c16 13 41 21 63 21c93 0 150 -63 150 -144c0 -84 -60 -151 -151 -151zM211 77c36 0 56 30 56 65c0 39 -24 74 -70 74c-33 0 -61 -19 -61 -40
c0 -51 32 -99 75 -99z" />
    <glyph glyph-name="seven.denominator" 
d="M51 0l175 317c14 24 24 38 24 38v2s-18 -2 -39 -2h-167v84h314v-65l-203 -374h-104z" />
    <glyph glyph-name="eight.denominator" 
d="M33 127c0 54 46 94 68 110c-28 21 -47 49 -47 90c0 81 72 122 146 122s149 -42 149 -123c0 -54 -46 -101 -53 -108c35 -21 62 -50 62 -99c0 -80 -77 -129 -160 -129c-82 0 -165 46 -165 137zM263 124c0 38 -50 55 -101 79c-15 -14 -37 -39 -37 -71c0 -39 35 -61 72 -61
c32 0 66 20 66 53zM145 323c0 -37 40 -54 86 -74c8 10 29 38 29 71c0 31 -31 47 -60 47c-28 0 -55 -13 -55 -44z" />
    <glyph glyph-name="nine.denominator" 
d="M34 298c0 84 59 151 150 151c94 0 173 -74 173 -206c0 -117 -66 -253 -204 -253c-57 0 -98 23 -98 23l28 81s34 -16 65 -16c52 0 88 40 101 96h-2c-16 -12 -42 -21 -63 -21c-94 0 -150 64 -150 145zM128 297c0 -39 25 -75 70 -75c34 0 61 20 61 40c0 51 -32 99 -75 99
c-36 0 -56 -29 -56 -64z" />
    <glyph glyph-name="thinspace" unicode="&#x2009;" horiz-adv-x="16" 
 />
    <glyph glyph-name="uni00AD" unicode="&#xad;" horiz-adv-x="431" 
d="M65 230v111h301v-111h-301z" />
    <glyph glyph-name="uni00A0" unicode="&#xa0;" horiz-adv-x="243" 
 />
    </font>
</defs>
</svg>
