<?xml version="1.0" standalone="no"?>
<!DOCTYPE svg PUBLIC "-//W3C//DTD SVG 1.1//EN" "http://www.w3.org/Graphics/SVG/1.1/DTD/svg11.dtd" >
<svg xmlns="http://www.w3.org/2000/svg" xmlns:xlink="http://www.w3.org/1999/xlink" version="1.1">
<metadata>
Created by FontForge 20190801 at Fri Sep 12 13:05:31 2008
 By Jimmy Wärting
Spaced and kerned with iKern.
</metadata>
<defs>
<font id="MuseoSans-900" horiz-adv-x="406" >
  <font-face 
    font-family="Museo Sans 900"
    font-weight="700"
    font-stretch="normal"
    units-per-em="1000"
    panose-1="2 0 0 0 0 0 0 0 0 0"
    ascent="750"
    descent="-250"
    x-height="515"
    cap-height="715"
    bbox="-130 -210 1220 918"
    underline-thickness="50"
    underline-position="-100"
    stemh="150"
    stemv="173"
    unicode-range="U+0020-FB04"
  />
<missing-glyph horiz-adv-x="510" 
d="M5 0v700h500v-700h-500zM255 395l170 255h-340zM285 350l170 -255v510zM55 95l170 255l-170 255v-510zM85 50h340l-170 255z" />
    <glyph glyph-name="f_f" unicode="ff" horiz-adv-x="768" 
d="M480 0v380h-211v-380h-173v380h-63v135h63v12c0 169 153 192 236 192c31 0 52 -3 52 -3v-146s-12 2 -28 2c-34 0 -87 -6 -87 -50v-7h211v12c0 169 153 192 236 192c31 0 52 -3 52 -3v-146s-12 2 -28 2c-34 0 -87 -6 -87 -50v-7h95v-135h-95v-380h-173z" />
    <glyph glyph-name="fi" unicode="fi" horiz-adv-x="685" 
d="M448 0v380h-179v-380h-173v380h-63v135h63v12c0 169 153 192 236 192c31 0 52 -3 52 -3v-146s-12 2 -28 2c-34 0 -87 -6 -87 -50v-7h352v-515h-173zM450 580v135h169v-135h-169z" />
    <glyph glyph-name="fl" unicode="fl" horiz-adv-x="707" 
d="M96 0v371h-63v135h63v21c0 169 153 192 236 192c31 0 52 -3 52 -3v-146s-12 2 -28 2c-34 0 -87 -6 -87 -50v-16h95v-135h-95v-371h-173zM441 190v525h173v-502c0 -49 9 -66 48 -66c11 0 21 1 21 1v-150s-24 -3 -52 -3c-92 0 -190 22 -190 195z" />
    <glyph glyph-name="f_f_i" unicode="ffi" horiz-adv-x="1069" 
d="M480 0v380h-211v-380h-173v380h-63v135h63v12c0 169 153 192 236 192c31 0 52 -3 52 -3v-146s-12 2 -28 2c-34 0 -87 -6 -87 -50v-7h211v12c0 169 153 192 236 192c31 0 52 -3 52 -3v-146s-12 2 -28 2c-34 0 -87 -6 -87 -50v-7h352v-515h-173v380h-179v-380h-173z
M834 580v135h169v-135h-169z" />
    <glyph glyph-name="f_f_l" unicode="ffl" horiz-adv-x="1091" 
d="M480 0v380h-211v-380h-173v380h-63v135h63v12c0 169 153 192 236 192c31 0 52 -3 52 -3v-146s-12 2 -28 2c-34 0 -87 -6 -87 -50v-7h211v12c0 169 153 192 236 192c31 0 52 -3 52 -3v-146s-12 2 -28 2c-34 0 -87 -6 -87 -50v-7h95v-135h-95v-380h-173zM825 190v525h173
v-502c0 -49 9 -66 48 -66c11 0 21 1 21 1v-150s-24 -3 -52 -3c-92 0 -190 22 -190 195z" />
    <glyph glyph-name="f_j" unicode="fj" horiz-adv-x="685" 
d="M96 0v380h-63v135h63v12c0 169 153 192 236 192c31 0 52 -3 52 -3v-146s-12 2 -28 2c-34 0 -87 -6 -87 -50v-7h352v-528c0 -173 -162 -195 -242 -195c-28 0 -46 3 -46 3v144s9 -1 22 -1c34 0 93 8 93 66v376h-179v-380h-173zM450 580v135h169v-135h-169z" />
    <glyph glyph-name=".notdef" horiz-adv-x="510" 
d="M5 0v700h500v-700h-500zM255 395l170 255h-340zM285 350l170 -255v510zM55 95l170 255l-170 255v-510zM85 50h340l-170 255z" />
    <glyph glyph-name="space" unicode=" " horiz-adv-x="229" 
 />
    <glyph glyph-name="exclam" unicode="!" horiz-adv-x="366" 
d="M109 221l-16 494h180l-16 -494h-148zM104 0v150h158v-150h-158z" />
    <glyph glyph-name="quotedbl" unicode="&#x22;" horiz-adv-x="413" 
d="M241 490v240h122v-240h-122zM50 490v240h122v-240h-122z" />
    <glyph glyph-name="numbersign" unicode="#" horiz-adv-x="699" 
d="M101 0l31 180h-101l20 120h101l17 95h-99l20 120h99l35 200h134l-35 -200h108l35 200h134l-35 -200h105l-20 -120h-105l-17 -95h103l-20 -120h-103l-31 -180h-134l31 180h-108l-31 -180h-134zM286 300h108l17 95h-108z" />
    <glyph glyph-name="dollar" unicode="$" horiz-adv-x="592" 
d="M39 90l92 133s81 -74 171 -74c36 0 75 14 75 57c0 80 -325 87 -325 302c0 112 80 192 191 213v94h109v-91c122 -14 183 -78 183 -78l-74 -143s-72 63 -158 63c-36 0 -76 -16 -76 -56c0 -85 325 -79 325 -300c0 -106 -72 -198 -200 -218v-91h-109v91
c-132 19 -204 98 -204 98z" />
    <glyph glyph-name="percent" unicode="%" horiz-adv-x="852" 
d="M210 382c-101 0 -181 76 -181 172c0 94 80 173 181 173c100 0 181 -79 181 -173c0 -96 -81 -172 -181 -172zM69 0l552 715h152l-552 -715h-152zM210 502c30 0 55 23 55 53c0 28 -25 52 -55 52s-55 -24 -55 -52c0 -30 25 -53 55 -53zM456 160c0 94 80 173 181 173
c100 0 181 -79 181 -173c0 -96 -81 -172 -181 -172c-101 0 -181 76 -181 172zM582 161c0 -30 25 -53 55 -53s55 23 55 53c0 28 -25 52 -55 52s-55 -24 -55 -52z" />
    <glyph glyph-name="ampersand" unicode="&#x26;" horiz-adv-x="704" 
d="M39 207c0 74 46 143 114 171v2s-84 38 -84 154c0 139 117 193 236 193c52 0 103 -12 103 -12l-40 -137s-18 4 -39 4c-45 0 -83 -23 -83 -74c0 -36 25 -69 73 -69h87v88h172v-88h89v-150h-89v-69c0 -128 -98 -232 -273 -232c-163 0 -266 97 -266 219zM218 218
c0 -39 38 -71 87 -71c66 0 101 36 101 83v59h-98c-46 0 -90 -17 -90 -71z" />
    <glyph glyph-name="quotesingle" unicode="'" horiz-adv-x="225" 
d="M50 490v240h125v-240h-125z" />
    <glyph glyph-name="parenleft" unicode="(" horiz-adv-x="336" 
d="M182 -95c-77 122 -124 274 -124 442c0 144 45 281 124 403h142c-74 -124 -113 -263 -113 -403c0 -150 39 -301 113 -442h-142z" />
    <glyph glyph-name="parenright" unicode=")" horiz-adv-x="336" 
d="M154 -95h-142c74 141 113 292 113 442c0 140 -39 279 -113 403h142c79 -122 124 -259 124 -403c0 -168 -47 -320 -124 -442z" />
    <glyph glyph-name="asterisk" unicode="*" horiz-adv-x="462" 
d="M175 309l-122 88l75 83v2l-110 23l46 143l102 -45l-11 112h152l-12 -112l103 46l47 -143l-111 -23v-2l76 -83l-122 -89l-56 97h-2z" />
    <glyph glyph-name="plus" unicode="+" horiz-adv-x="628" 
d="M41 222v130h205v223h136v-223h205v-130h-205v-222h-136v222h-205z" />
    <glyph glyph-name="comma" unicode="," horiz-adv-x="288" 
d="M6 -111l75 277h165l-113 -277h-127z" />
    <glyph glyph-name="hyphen" unicode="-" horiz-adv-x="448" 
d="M67 212v150h314v-150h-314z" />
    <glyph glyph-name="period" unicode="." horiz-adv-x="280" 
d="M58 0v164h164v-164h-164z" />
    <glyph glyph-name="slash" unicode="/" horiz-adv-x="434" 
d="M21 -42l256 792h144l-256 -792h-144z" />
    <glyph glyph-name="zero" unicode="0" horiz-adv-x="640" 
d="M320 -12c-203 0 -269 166 -269 371s66 368 269 368s269 -163 269 -368s-66 -371 -269 -371zM320 148c69 0 89 94 89 211c0 116 -20 208 -89 208s-89 -92 -89 -208c0 -117 20 -211 89 -211z" />
    <glyph glyph-name="one" unicode="1" horiz-adv-x="555" 
d="M56 0v150h152v298c0 27 1 55 1 55h-2s-9 -20 -28 -38l-43 -39l-101 108l193 181h151v-565h153v-150h-476z" />
    <glyph glyph-name="two" unicode="2" horiz-adv-x="601" 
d="M56 0c-5 28 -8 53 -8 77c0 264 309 311 309 414c0 50 -40 71 -77 71c-68 0 -106 -76 -106 -76l-130 87s66 154 252 154c117 0 244 -67 244 -219c0 -223 -288 -266 -293 -358h304v-150h-495z" />
    <glyph glyph-name="three" unicode="3" horiz-adv-x="587" 
d="M30 82l84 135s64 -64 147 -64c65 0 102 32 102 71c0 56 -56 79 -133 79h-50l-37 85l94 113c34 41 62 67 62 67v2s-23 -5 -68 -5h-171v150h451v-109l-145 -167c106 -23 173 -107 173 -207c0 -122 -86 -244 -265 -244c-160 0 -244 94 -244 94z" />
    <glyph glyph-name="four" unicode="4" horiz-adv-x="644" 
d="M26 173v106l276 436h214v-397h85v-145h-85v-173h-173v173h-317zM204 318h139v160c0 39 6 80 6 80h-2s-15 -44 -35 -74l-108 -164v-2z" />
    <glyph glyph-name="five" unicode="5" horiz-adv-x="584" 
d="M38 82l84 135s65 -64 145 -64c47 0 100 29 100 88c0 56 -49 89 -114 89c-55 0 -96 -24 -96 -24l-93 35l29 374h400v-150h-248l-4 -66c0 -14 -4 -28 -4 -28h2s25 7 52 7c170 0 256 -106 256 -235c0 -148 -109 -255 -265 -255c-158 0 -244 94 -244 94z" />
    <glyph glyph-name="six" unicode="6" horiz-adv-x="619" 
d="M336 -12c-144 0 -290 109 -290 342c0 194 119 397 341 397c100 0 158 -31 158 -31l-47 -150s-47 21 -98 21c-84 0 -132 -52 -154 -118h2c17 12 64 25 98 25c149 0 234 -122 234 -245c0 -121 -89 -241 -244 -241zM336 148c44 0 72 38 72 80c0 51 -31 105 -108 105
c-40 0 -74 -10 -74 -43c0 -85 60 -142 110 -142z" />
    <glyph glyph-name="seven" unicode="7" horiz-adv-x="567" 
d="M65 0l251 501c25 49 46 65 46 65v2s-10 -3 -46 -3h-282v150h513v-122l-300 -593h-182z" />
    <glyph glyph-name="eight" unicode="8" horiz-adv-x="623" 
d="M44 210c0 92 77 157 99 174c-38 33 -65 76 -65 137c0 104 73 206 240 206c133 0 242 -74 242 -207c0 -77 -63 -154 -70 -163c48 -33 84 -79 84 -151c0 -109 -88 -218 -265 -218c-174 0 -265 108 -265 222zM395 215c0 41 -64 65 -134 97c-17 -18 -38 -48 -38 -87
c0 -46 38 -83 86 -83c53 0 86 26 86 73zM249 517c0 -47 52 -71 115 -98c6 11 25 44 25 88c0 40 -28 66 -75 66c-45 0 -65 -25 -65 -56z" />
    <glyph glyph-name="nine" unicode="9" horiz-adv-x="619" 
d="M232 -12c-100 0 -158 31 -158 31l47 150s47 -21 98 -21c84 0 132 52 154 118h-2c-16 -13 -64 -25 -98 -25c-149 0 -234 122 -234 245c0 121 89 241 244 241c144 0 290 -109 290 -342c0 -194 -119 -397 -341 -397zM319 382c40 0 74 10 74 43c0 85 -60 142 -110 142
c-44 0 -72 -38 -72 -80c0 -51 31 -105 108 -105z" />
    <glyph glyph-name="colon" unicode=":" horiz-adv-x="300" 
d="M68 351v164h164v-164h-164zM68 0v164h164v-164h-164z" />
    <glyph glyph-name="semicolon" unicode=";" horiz-adv-x="302" 
d="M83 351v164h158v-164h-158zM13 -111l65 277h166l-103 -277h-128z" />
    <glyph glyph-name="less" unicode="&#x3c;" horiz-adv-x="631" 
d="M60 234v107l504 223v-145l-330 -131v-2l330 -130v-145z" />
    <glyph glyph-name="equal" unicode="=" horiz-adv-x="646" 
d="M70 337v130h506v-130h-506zM70 107v130h506v-130h-506z" />
    <glyph glyph-name="greater" unicode="&#x3e;" horiz-adv-x="631" 
d="M67 11v145l330 130v2l-330 131v145l504 -223v-107z" />
    <glyph glyph-name="question" unicode="?" horiz-adv-x="501" 
d="M123 221v50c0 135 157 159 157 243c0 34 -33 59 -71 59c-48 0 -95 -43 -95 -43l-96 117s75 83 209 83c112 0 233 -67 233 -196c0 -164 -171 -188 -171 -277v-36h-166zM127 0v150h158v-150h-158z" />
    <glyph glyph-name="at" unicode="@" horiz-adv-x="865" 
d="M44 239c0 211 168 376 393 376c221 0 298 -110 298 -240v-198h74v-119h-283c-150 0 -227 91 -227 182c0 88 74 176 227 176h49c0 43 -73 64 -135 64c-130 0 -227 -120 -227 -241c0 -127 88 -239 252 -239v-130c-262 0 -421 163 -421 369zM470 244c0 -37 22 -67 66 -67h39
v134h-37c-46 0 -68 -31 -68 -67z" />
    <glyph glyph-name="A" unicode="A" horiz-adv-x="662" 
d="M486 0l-44 150h-223l-43 -150h-180l243 715h184l243 -715h-180zM332 552h-2s-16 -78 -29 -123l-41 -139h141l-40 139c-13 45 -29 123 -29 123z" />
    <glyph glyph-name="B" unicode="B" horiz-adv-x="659" 
d="M84 0v715h263c143 0 243 -64 243 -187c0 -60 -29 -121 -83 -152v-2c82 -25 112 -98 112 -161c0 -156 -130 -213 -272 -213h-263zM259 438h90c44 0 63 32 63 66c0 33 -19 61 -66 61h-87v-127zM259 150h105c51 0 76 35 76 75s-24 73 -75 73h-106v-148z" />
    <glyph glyph-name="C" unicode="C" horiz-adv-x="720" 
d="M35 359c0 208 160 368 375 368c177 0 268 -101 268 -101l-81 -132s-80 73 -179 73c-137 0 -202 -101 -202 -204c0 -106 70 -215 202 -215c108 0 190 88 190 88l90 -128s-101 -120 -288 -120c-224 0 -375 159 -375 371z" />
    <glyph glyph-name="D" unicode="D" horiz-adv-x="746" 
d="M84 0v715h254c225 0 369 -131 369 -356s-144 -359 -369 -359h-254zM259 150h72c121 0 195 72 195 209c0 136 -77 206 -195 206h-72v-415z" />
    <glyph glyph-name="E" unicode="E" horiz-adv-x="588" 
d="M84 0v715h448v-150h-273v-130h218v-150h-218v-135h287v-150h-462z" />
    <glyph glyph-name="F" unicode="F" horiz-adv-x="549" 
d="M84 0v715h438v-150h-263v-150h218v-150h-218v-265h-175z" />
    <glyph glyph-name="G" unicode="G" horiz-adv-x="770" 
d="M36 359c0 208 157 368 375 368c183 0 275 -95 275 -95l-84 -131s-73 66 -174 66c-150 0 -211 -96 -211 -202c0 -136 94 -217 205 -217c84 0 145 52 145 52v55h-101v149h256v-404h-146v20c0 15 1 30 1 30h-2s-69 -62 -188 -62c-183 0 -351 137 -351 371z" />
    <glyph glyph-name="H" unicode="H" horiz-adv-x="778" 
d="M84 0v715h175v-286h260v286h175v-715h-175v280h-260v-280h-175z" />
    <glyph glyph-name="I" unicode="I" horiz-adv-x="343" 
d="M84 0v715h175v-715h-175z" />
    <glyph glyph-name="J" unicode="J" horiz-adv-x="575" 
d="M21 220v52h175v-38c0 -27 5 -47 14 -60c12 -19 32 -26 52 -26c37 0 63 24 63 76v341h-192v150h367v-495c0 -157 -120 -232 -240 -232s-239 77 -239 232z" />
    <glyph glyph-name="K" unicode="K" horiz-adv-x="692" 
d="M84 0v715h175v-276h72l148 276h188l-193 -342v-2l204 -371h-196l-151 290h-72v-290h-175z" />
    <glyph glyph-name="L" unicode="L" horiz-adv-x="563" 
d="M84 0v715h175v-565h292v-150h-467z" />
    <glyph glyph-name="M" unicode="M" horiz-adv-x="903" 
d="M62 0l59 715h190l104 -302c16 -46 36 -118 36 -118h2s20 72 36 118l104 302h190l58 -715h-175l-22 322c-4 54 0 120 0 120h-2s-24 -75 -40 -120l-75 -207h-150l-75 207c-16 45 -40 120 -40 120h-2s4 -66 0 -120l-22 -322h-176z" />
    <glyph glyph-name="N" unicode="N" horiz-adv-x="772" 
d="M84 0v715h177l198 -334c28 -47 60 -122 60 -122h2s-8 77 -8 122v334h175v-715h-176l-199 333c-28 47 -60 122 -60 122h-2s8 -77 8 -122v-333h-175z" />
    <glyph glyph-name="O" unicode="O" horiz-adv-x="818" 
d="M35 362c0 205 158 365 374 365s374 -160 374 -365c0 -210 -158 -374 -374 -374s-374 164 -374 374zM216 362c0 -122 86 -214 193 -214s193 92 193 214c0 117 -86 205 -193 205s-193 -88 -193 -205z" />
    <glyph glyph-name="P" unicode="P" horiz-adv-x="634" 
d="M84 0v715h297c139 0 233 -102 233 -246s-94 -248 -233 -248h-122v-221h-175zM259 371h86c61 0 91 41 91 98s-30 96 -88 96h-89v-194z" />
    <glyph glyph-name="Q" unicode="Q" horiz-adv-x="828" 
d="M35 362c0 205 158 365 374 365s374 -160 374 -365c0 -82 -29 -152 -71 -212l75 -61l-99 -111l-73 69c-58 -38 -128 -59 -206 -59c-216 0 -374 164 -374 374zM216 362c0 -122 86 -214 193 -214c26 0 56 5 78 16l-73 64l98 111l71 -69c12 28 19 59 19 92
c0 117 -86 205 -193 205s-193 -88 -193 -205z" />
    <glyph glyph-name="R" unicode="R" horiz-adv-x="685" 
d="M84 0v715h249c73 0 108 -5 139 -17c81 -31 132 -104 132 -208c0 -76 -36 -159 -107 -195v-2s10 -13 27 -43l139 -250h-195l-127 241h-82v-241h-175zM259 391h76c56 0 91 31 91 88c0 54 -20 86 -108 86h-59v-174z" />
    <glyph glyph-name="S" unicode="S" horiz-adv-x="580" 
d="M31 90l92 133s81 -74 171 -74c36 0 75 14 75 57c0 85 -322 82 -322 302c0 132 111 219 253 219c154 0 230 -81 230 -81l-74 -143s-72 63 -158 63c-36 0 -76 -16 -76 -56c0 -90 322 -74 322 -300c0 -119 -91 -222 -252 -222c-168 0 -261 102 -261 102z" />
    <glyph glyph-name="T" unicode="T" horiz-adv-x="617" 
d="M221 0v565h-217v150h609v-150h-217v-565h-175z" />
    <glyph glyph-name="U" unicode="U" horiz-adv-x="746" 
d="M74 263v452h175v-452c0 -75 49 -115 124 -115s124 40 124 115v452h175v-452c0 -161 -118 -275 -298 -275c-182 0 -300 114 -300 275z" />
    <glyph glyph-name="V" unicode="V" horiz-adv-x="675" 
d="M247 0l-253 715h190l126 -407c14 -45 27 -115 27 -115h2s13 70 27 115l128 407h187l-252 -715h-182z" />
    <glyph glyph-name="W" unicode="W" horiz-adv-x="998" 
d="M195 0l-174 715h184l90 -447c9 -44 9 -75 9 -75h2s1 31 12 75l110 447h141l107 -447c11 -44 12 -75 12 -75h2s0 31 9 75l98 447h181l-181 -715h-195l-90 361c-11 46 -14 84 -14 84h-2s-3 -38 -14 -84l-90 -361h-197z" />
    <glyph glyph-name="X" unicode="X" horiz-adv-x="675" 
d="M16 0l217 355l-218 360h199l78 -147c24 -45 44 -92 44 -92h2s19 46 44 92l79 147h199l-219 -360l218 -355h-195l-82 150c-25 45 -44 89 -44 89h-2s-19 -44 -44 -89l-82 -150h-194z" />
    <glyph glyph-name="Y" unicode="Y" horiz-adv-x="639" 
d="M232 0v293l-236 422h199l81 -172c23 -49 43 -103 43 -103h2s20 54 43 103l80 172h199l-236 -422v-293h-175z" />
    <glyph glyph-name="Z" unicode="Z" horiz-adv-x="638" 
d="M38 0v110l276 391c31 44 55 65 55 65v2s-23 -3 -55 -3h-263v150h540v-108l-277 -393c-31 -44 -55 -65 -55 -65v-2s23 3 55 3h282v-150h-558z" />
    <glyph glyph-name="bracketleft" unicode="[" horiz-adv-x="370" 
d="M85 -95v845h246v-120h-102v-605h102v-120h-246z" />
    <glyph glyph-name="backslash" unicode="\" horiz-adv-x="434" 
d="M269 -42l-256 792h144l256 -792h-144z" />
    <glyph glyph-name="bracketright" unicode="]" horiz-adv-x="370" 
d="M39 25h102v605h-102v120h246v-845h-246v120z" />
    <glyph glyph-name="asciicircum" unicode="^" horiz-adv-x="630" 
d="M58 241l203 474h107l203 -474h-145l-112 300l-111 -300h-145z" />
    <glyph glyph-name="underscore" unicode="_" horiz-adv-x="622" 
d="M13 0h596v-130h-596v130z" />
    <glyph glyph-name="grave" unicode="`" horiz-adv-x="484" 
d="M234 761l-118 150h171l81 -150h-134z" />
    <glyph glyph-name="a" unicode="a" horiz-adv-x="560" 
d="M25 154c0 150 219 167 299 167h7v9c0 43 -33 57 -76 57c-65 0 -139 -49 -139 -49l-60 122s89 67 216 67c145 0 232 -79 232 -210v-317h-158v31c0 17 2 32 2 32h-2s-38 -75 -146 -75c-96 0 -175 64 -175 166zM199 163c0 -24 15 -43 49 -43c45 0 85 49 85 91v11h-16
c-55 0 -118 -16 -118 -59z" />
    <glyph glyph-name="b" unicode="b" horiz-adv-x="637" 
d="M64 0v715h173v-199c0 -26 -2 -44 -2 -44h2s48 55 139 55c140 0 232 -110 232 -270c0 -163 -103 -269 -240 -269c-95 0 -141 58 -141 58h-2s1 -13 1 -29v-17h-162zM232 254c0 -62 33 -123 101 -123c54 0 101 44 101 123c0 77 -41 127 -101 127c-52 0 -101 -38 -101 -127z
" />
    <glyph glyph-name="c" unicode="c" horiz-adv-x="551" 
d="M26 258c0 138 102 269 287 269c140 0 205 -78 205 -78l-73 -116s-50 50 -121 50c-82 0 -123 -62 -123 -123s42 -128 129 -128c72 0 141 62 141 62l63 -121s-77 -85 -221 -85c-184 0 -287 128 -287 270z" />
    <glyph glyph-name="d" unicode="d" horiz-adv-x="637" 
d="M29 258c0 163 98 269 235 269c104 0 135 -41 135 -41h2s-1 10 -1 23v206h173v-715h-162v34c0 16 1 29 1 29h-2s-43 -75 -149 -75c-140 0 -232 110 -232 270zM203 258c0 -77 41 -127 101 -127c52 0 101 38 101 127c0 62 -33 123 -101 123c-54 0 -101 -44 -101 -123z" />
    <glyph glyph-name="e" unicode="e" horiz-adv-x="563" 
d="M27 258c0 151 102 269 268 269c152 0 238 -106 238 -249c0 -17 -4 -54 -4 -54h-325c13 -63 65 -92 120 -92c74 0 142 52 142 52l64 -121s-83 -75 -220 -75c-184 0 -283 133 -283 270zM208 323h151c0 39 -27 74 -68 74c-50 0 -74 -36 -83 -74z" />
    <glyph glyph-name="f" unicode="f" horiz-adv-x="384" 
d="M96 0v371h-63v135h63v21c0 169 153 192 236 192c31 0 52 -3 52 -3v-146s-12 2 -28 2c-34 0 -87 -6 -87 -50v-16h95v-135h-95v-371h-173z" />
    <glyph glyph-name="g" unicode="g" horiz-adv-x="629" 
d="M128 -33c0 0 64 -33 145 -33c62 0 119 23 119 99v17c0 6 1 19 1 19h-2c-30 -36 -69 -54 -129 -54c-155 0 -232 127 -232 259c0 131 75 253 231 253c94 0 140 -50 140 -50h3s-1 6 -1 12v26h162v-468c0 -188 -150 -257 -291 -257c-69 0 -145 20 -195 46zM303 159
c45 0 93 23 93 113c0 91 -48 111 -100 111c-61 0 -92 -44 -92 -103c0 -64 30 -121 99 -121z" />
    <glyph glyph-name="h" unicode="h" horiz-adv-x="636" 
d="M64 0v715h173v-226c0 -26 -2 -44 -2 -44h2c29 51 89 82 157 82c104 0 185 -48 185 -193v-334h-173v302c0 48 -19 68 -57 68c-53 0 -88 -31 -103 -76c-7 -20 -9 -42 -9 -66v-228h-173z" />
    <glyph glyph-name="i" unicode="i" horiz-adv-x="301" 
d="M66 580v135h169v-135h-169zM64 0v515h173v-515h-173z" />
    <glyph glyph-name="j" unicode="j" horiz-adv-x="301" 
d="M66 580v135h169v-135h-169zM64 515h173v-528c0 -173 -162 -195 -242 -195c-28 0 -46 3 -46 3v144s9 -1 22 -1c34 0 93 8 93 66v511z" />
    <glyph glyph-name="k" unicode="k" horiz-adv-x="599" 
d="M64 0v715h173v-370h49l102 170h188l-151 -234v-2l172 -279h-197l-109 200h-54v-200h-173z" />
    <glyph glyph-name="l" unicode="l" horiz-adv-x="323" 
d="M57 190v525h173v-502c0 -49 9 -66 48 -66c11 0 21 1 21 1v-150s-24 -3 -52 -3c-92 0 -190 22 -190 195z" />
    <glyph glyph-name="m" unicode="m" horiz-adv-x="918" 
d="M64 0v515h166v-45c0 -17 -2 -32 -2 -32h2c24 36 72 89 153 89c65 0 117 -29 144 -87h2c27 43 88 87 165 87c94 0 167 -51 167 -193v-334h-173v305c0 38 -7 65 -40 65c-55 0 -84 -40 -95 -97c-4 -18 -4 -39 -4 -60v-213h-173v305c0 38 -7 65 -40 65c-54 0 -82 -38 -94 -93
c-4 -19 -5 -42 -5 -64v-213h-173z" />
    <glyph glyph-name="n" unicode="n" horiz-adv-x="636" 
d="M64 0v515h166v-45c0 -17 -2 -32 -2 -32h2c24 40 73 89 164 89c104 0 185 -48 185 -193v-334h-173v302c0 48 -19 68 -57 68c-54 0 -87 -30 -102 -74c-7 -20 -10 -43 -10 -68v-228h-173z" />
    <glyph glyph-name="o" unicode="o" horiz-adv-x="636" 
d="M26 256c0 162 130 271 291 271c163 0 293 -109 293 -271c0 -161 -130 -268 -292 -268s-292 107 -292 268zM201 256c0 -77 54 -124 117 -124s117 47 117 124c0 78 -54 127 -117 127s-117 -49 -117 -127z" />
    <glyph glyph-name="p" unicode="p" horiz-adv-x="637" 
d="M64 -200v715h156v-26c0 -17 -2 -33 -2 -33h2s47 71 156 71c140 0 232 -110 232 -270c0 -163 -103 -269 -240 -269c-84 0 -131 49 -131 49h-2s2 -18 2 -44v-193h-173zM232 254c0 -62 33 -123 101 -123c54 0 101 44 101 123c0 77 -41 127 -101 127
c-52 0 -101 -38 -101 -127z" />
    <glyph glyph-name="q" unicode="q" horiz-adv-x="637" 
d="M29 258c0 163 98 269 235 269c104 0 147 -55 147 -55h2s-2 11 -2 28v15h162v-715h-173v202c0 26 2 44 2 44h-2s-45 -58 -139 -58c-140 0 -232 110 -232 270zM203 258c0 -77 41 -127 101 -127c52 0 101 38 101 127c0 62 -33 123 -101 123c-54 0 -101 -44 -101 -123z" />
    <glyph glyph-name="r" unicode="r" horiz-adv-x="430" 
d="M64 0v515h166v-87c0 -17 -2 -32 -2 -32h2c22 70 87 128 164 128c10 0 20 -2 20 -2v-170s-14 3 -35 3c-41 0 -108 -13 -133 -90c-6 -19 -9 -42 -9 -70v-195h-173z" />
    <glyph glyph-name="s" unicode="s" horiz-adv-x="471" 
d="M24 64l74 116s57 -52 131 -52c26 0 51 7 51 24c0 45 -241 50 -241 218c0 97 93 157 212 157c120 0 181 -59 181 -59l-59 -123s-50 42 -122 42c-26 0 -51 -7 -51 -25c0 -39 241 -45 241 -211c0 -88 -78 -163 -211 -163c-129 0 -206 76 -206 76z" />
    <glyph glyph-name="t" unicode="t" horiz-adv-x="415" 
d="M90 190v181h-66v135h71v148h168v-148h108v-135h-108v-158c0 -58 59 -66 92 -66c14 0 23 1 23 1v-150s-19 -3 -47 -3c-82 0 -241 22 -241 195z" />
    <glyph glyph-name="u" unicode="u" horiz-adv-x="631" 
d="M57 181v334h173v-302c0 -48 19 -68 55 -68c74 0 109 65 109 142v228h173v-515h-166v45c0 17 2 32 2 32h-2c-28 -55 -92 -89 -161 -89c-102 0 -183 48 -183 193z" />
    <glyph glyph-name="v" unicode="v" horiz-adv-x="562" 
d="M176 0l-178 515h182l80 -274c10 -33 19 -89 19 -89h2s9 55 19 89l79 274h183l-175 -515h-211z" />
    <glyph glyph-name="w" unicode="w" horiz-adv-x="840" 
d="M157 0l-144 515h182l64 -304c6 -28 6 -54 6 -54h2s2 26 9 54l71 304h148l71 -304c7 -28 8 -54 8 -54h2s1 26 7 54l64 304h180l-144 -515h-193l-58 238c-7 28 -10 55 -10 55h-2s-3 -27 -10 -55l-58 -238h-195z" />
    <glyph glyph-name="x" unicode="x" horiz-adv-x="558" 
d="M15 0l162 255l-166 260h195l56 -115c7 -13 16 -34 16 -34h2s10 21 16 34l56 115h195l-165 -260l162 -255h-190l-62 116c-5 9 -12 26 -12 26h-2s-7 -17 -12 -26l-61 -116h-190z" />
    <glyph glyph-name="y" unicode="y" horiz-adv-x="546" 
d="M1 -174l55 127s28 -19 53 -19c28 0 65 8 83 52l10 24l-219 505h196l76 -237c9 -28 19 -80 19 -80h2s10 49 17 77l65 240h189l-211 -570c-43 -115 -133 -155 -215 -155c-68 0 -120 36 -120 36z" />
    <glyph glyph-name="z" unicode="z" horiz-adv-x="543" 
d="M34 0v86l189 237c26 32 45 47 45 47v2s-13 -2 -45 -2h-181v145h460v-87l-188 -237c-25 -31 -46 -47 -46 -47v-2s13 3 46 3h193v-145h-473z" />
    <glyph glyph-name="braceleft" unicode="{" horiz-adv-x="405" 
d="M124 62v98c0 96 -85 96 -85 96v150s85 0 85 99v88c0 143 129 162 199 162c25 0 43 -2 43 -2v-124s-11 2 -25 2c-29 0 -73 -8 -73 -54v-117c0 -102 -84 -127 -84 -127v-2s84 -21 84 -126v-127c0 -46 44 -54 73 -54c14 0 25 2 25 2v-124s-18 -2 -43 -2
c-70 0 -199 19 -199 162z" />
    <glyph glyph-name="bar" unicode="|" horiz-adv-x="310" 
d="M83 -165v967h144v-967h-144z" />
    <glyph glyph-name="braceright" unicode="}" horiz-adv-x="405" 
d="M39 26c0 0 11 -2 25 -2c29 0 73 8 73 54v127c0 105 84 126 84 126v2s-84 25 -84 127v117c0 46 -44 54 -73 54c-14 0 -25 -2 -25 -2v124s18 2 43 2c70 0 199 -19 199 -162v-88c0 -99 85 -99 85 -99v-150s-85 0 -85 -96v-98c0 -143 -129 -162 -199 -162c-25 0 -43 2 -43 2
v124z" />
    <glyph glyph-name="asciitilde" unicode="~" horiz-adv-x="625" 
d="M47 191c0 134 58 203 174 203c93 0 120 -80 172 -80c32 0 55 25 55 76h133c0 -134 -58 -203 -173 -203c-93 0 -120 80 -173 80c-31 0 -54 -25 -54 -76h-134z" />
    <glyph glyph-name="exclamdown" unicode="&#xa1;" horiz-adv-x="320" 
d="M81 364v150h158v-150h-158zM70 -200l16 493h148l16 -493h-180z" />
    <glyph glyph-name="cent" unicode="&#xa2;" horiz-adv-x="588" 
d="M250 -12v87c-118 27 -213 140 -213 283c0 142 95 256 213 283v85h110v-85c90 -20 164 -84 193 -172l-154 -60c-13 39 -44 75 -90 75c-47 0 -98 -50 -98 -126c0 -83 46 -126 98 -126c45 0 77 35 90 75l154 -60c-24 -68 -90 -157 -193 -172v-87h-110z" />
    <glyph glyph-name="sterling" unicode="&#xa3;" horiz-adv-x="608" 
d="M59 299v112h43v100c0 128 103 216 244 216c118 0 196 -83 196 -83l-97 -118s-46 44 -94 44c-38 0 -70 -25 -70 -64v-95h165v-112h-165v-149h290v-150h-524v150h55v149h-43z" />
    <glyph glyph-name="yen" unicode="&#xa5;" horiz-adv-x="644" 
d="M69 340v96h92l-137 279h201l53 -143c24 -66 43 -133 43 -133h2s19 67 43 133l53 143h201l-138 -279h93v-96h-140l-24 -49v-28h164v-96h-164v-167h-179v167h-163v96h163v28l-24 49h-139z" />
    <glyph glyph-name="section" unicode="&#xa7;" horiz-adv-x="525" 
d="M139 179l-76 273c-7 26 -10 51 -10 75c0 114 77 200 231 200c133 0 207 -77 207 -77l-74 -108s-54 47 -131 47c-55 0 -98 -17 -98 -83c0 -19 3 -41 10 -67l72 -260h-131zM30 15l69 115s59 -55 137 -55c53 0 98 23 98 94c0 21 -4 46 -13 77l-68 240h131l74 -273
c7 -26 10 -51 10 -75c0 -114 -77 -200 -231 -200c-133 0 -207 77 -207 77z" />
    <glyph glyph-name="dieresis" unicode="&#xa8;" horiz-adv-x="485" 
d="M284 771v140h126v-140h-126zM75 771v140h126v-140h-126z" />
    <glyph glyph-name="copyright" unicode="&#xa9;" horiz-adv-x="800" 
d="M39 358c0 204 161 368 359 368c202 0 363 -164 363 -368s-161 -370 -363 -370c-198 0 -359 166 -359 370zM152 358c0 -149 107 -267 246 -267c142 0 251 118 251 267c0 148 -109 265 -251 265c-139 0 -246 -117 -246 -265zM228 355c0 106 80 187 172 187
c130 0 162 -115 162 -115l-100 -39s-14 49 -58 49c-30 0 -59 -33 -59 -82c0 -54 25 -82 59 -82c44 0 58 49 58 49l100 -39s-32 -115 -162 -115c-92 0 -172 81 -172 187z" />
    <glyph glyph-name="ordfeminine" unicode="&#xaa;" horiz-adv-x="413" 
d="M156 383c-52 0 -105 39 -105 102c0 105 132 109 181 109h5v8c0 27 -21 36 -47 36c-38 0 -80 -27 -80 -27l-38 75s49 39 138 39c95 0 145 -53 145 -135v-200h-108v39h-2s-23 -46 -89 -46zM191 472c24 0 45 22 45 45v5h-10c-29 0 -58 -7 -58 -30c0 -14 11 -20 23 -20z
M54 268v85h305v-85h-305z" />
    <glyph glyph-name="guillemotleft" unicode="&#xab;" horiz-adv-x="643" 
d="M288 282l164 206h158l-164 -206l164 -205h-158zM192 77l-164 205l164 206h158l-164 -206l164 -205h-158z" />
    <glyph glyph-name="logicalnot" unicode="&#xac;" horiz-adv-x="602" 
d="M36 337v130h506v-335h-135v205h-371z" />
    <glyph glyph-name="registered" unicode="&#xae;" horiz-adv-x="800" 
d="M39 358c0 204 161 368 359 368c202 0 363 -164 363 -368s-161 -370 -363 -370c-198 0 -359 166 -359 370zM152 358c0 -149 107 -267 246 -267c142 0 251 118 251 267c0 148 -109 265 -251 265c-139 0 -246 -117 -246 -265zM268 187v347h163c75 0 122 -45 122 -115
c0 -56 -41 -84 -58 -89v-2s4 -3 13 -20l63 -121h-118l-49 118h-28v-118h-108zM376 377h27c26 0 40 15 40 42c0 28 -14 41 -38 41h-29v-83z" />
    <glyph glyph-name="macron" unicode="&#xaf;" horiz-adv-x="485" 
d="M105 782v112h275v-112h-275z" />
    <glyph glyph-name="degree" unicode="&#xb0;" horiz-adv-x="418" 
d="M209 385c-101 0 -181 76 -181 172c0 94 80 173 181 173c100 0 181 -79 181 -173c0 -96 -81 -172 -181 -172zM209 505c30 0 55 23 55 53c0 28 -25 52 -55 52s-55 -24 -55 -52c0 -30 25 -53 55 -53z" />
    <glyph glyph-name="plusminus" unicode="&#xb1;" horiz-adv-x="626" 
d="M40 222v130h205v223h136v-223h205v-130h-205v-222h-136v222h-205zM50 -70h526v-130h-526v130z" />
    <glyph glyph-name="twosuperior" unicode="&#xb2;" 
d="M44 423c-3 17 -5 34 -5 49c0 179 199 186 199 253c0 23 -22 34 -45 34c-39 0 -71 -45 -71 -45l-83 71s50 89 163 89c76 0 163 -43 163 -143c0 -139 -175 -158 -185 -200h191v-108h-327z" />
    <glyph glyph-name="threesuperior" unicode="&#xb3;" 
d="M191 413c-108 0 -160 68 -160 68l61 90s34 -43 91 -43c34 0 54 18 54 42c0 25 -29 36 -62 36h-37l-24 57l62 69c7 9 24 23 24 23v2s-21 -2 -34 -2h-110v109h294v-79l-83 -91c68 -17 97 -66 97 -126c0 -77 -59 -155 -173 -155z" />
    <glyph glyph-name="acute" unicode="&#xb4;" horiz-adv-x="484" 
d="M116 761l81 150h171l-118 -150h-134z" />
    <glyph glyph-name="mu" unicode="&#xb5;" horiz-adv-x="650" 
d="M70 -200v715h173v-302c0 -48 19 -68 55 -68c74 0 109 65 109 142v228h173v-515h-166v50c0 10 2 27 2 27h-3s-41 -89 -160 -89c-25 0 -42 4 -42 4h-2s8 -48 8 -88v-104h-147z" />
    <glyph glyph-name="mu" unicode="&#x3bc;" horiz-adv-x="650" 
d="M70 -200v715h173v-302c0 -48 19 -68 55 -68c74 0 109 65 109 142v228h173v-515h-166v50c0 10 2 27 2 27h-3s-41 -89 -160 -89c-25 0 -42 4 -42 4h-2s8 -48 8 -88v-104h-147z" />
    <glyph glyph-name="paragraph" unicode="&#xb6;" horiz-adv-x="654" 
d="M262 -50v291c-129 0 -233 104 -233 238s104 236 233 236h357v-150h-237v-615h-120zM444 -50v565h120v-565h-120z" />
    <glyph glyph-name="periodcentered" unicode="&#xb7;" horiz-adv-x="292" 
d="M67 213v164h158v-164h-158z" />
    <glyph glyph-name="cedilla" unicode="&#xb8;" horiz-adv-x="484" 
d="M199 29l72 -17v-7l-10 -41c40 -4 75 -27 75 -80c0 -72 -60 -94 -117 -94c-38 0 -71 9 -71 9v87s23 -10 45 -10s38 7 38 23c0 17 -21 21 -41 21c-13 0 -26 -2 -26 -2z" />
    <glyph glyph-name="onesuperior" unicode="&#xb9;" 
d="M62 423v108h89v143c0 19 3 32 3 32h-2s-5 -10 -11 -15l-24 -22l-72 79l124 116h108v-333h90v-108h-305z" />
    <glyph glyph-name="ordmasculine" unicode="&#xba;" horiz-adv-x="455" 
d="M227 385c-100 0 -182 68 -182 170s82 170 181 170c102 0 184 -68 184 -170s-82 -170 -183 -170zM227 488c34 0 63 25 63 67c0 41 -29 68 -63 68s-63 -27 -63 -68c0 -42 29 -67 63 -67zM58 268v85h338v-85h-338z" />
    <glyph glyph-name="guillemotright" unicode="&#xbb;" horiz-adv-x="643" 
d="M293 77l164 205l-164 206h158l164 -206l-164 -205h-158zM33 77l164 205l-164 206h158l164 -206l-164 -205h-158z" />
    <glyph glyph-name="onequarter" unicode="&#xbc;" horiz-adv-x="1007" 
d="M805 0v87h-197v84l171 270h150v-247h53v-107h-53v-87h-124zM727 194h78v90c0 25 4 50 4 50h-2s-9 -27 -21 -46l-59 -92v-2zM397 0h-119l336 715h119zM56 274v108h89v143c0 19 3 32 3 32h-2s-5 -10 -11 -15l-24 -22l-72 79l124 116h108v-333h90v-108h-305z" />
    <glyph glyph-name="onehalf" unicode="&#xbd;" horiz-adv-x="1018" 
d="M395 0h-119l336 715h119zM50 274v108h89v143c0 19 3 32 3 32h-2s-5 -10 -11 -15l-24 -22l-72 79l124 116h108v-333h90v-108h-305zM639 0c-3 17 -5 34 -5 49c0 179 199 186 199 253c0 23 -22 34 -45 34c-39 0 -71 -45 -71 -45l-83 71s50 89 163 89c76 0 163 -43 163 -143
c0 -139 -175 -158 -185 -200h191v-108h-327z" />
    <glyph glyph-name="threequarters" unicode="&#xbe;" horiz-adv-x="1014" 
d="M186 264c-108 0 -160 68 -160 68l61 90s34 -43 91 -43c34 0 54 18 54 42c0 25 -29 36 -62 36h-37l-24 57l62 69c7 9 24 23 24 23v2s-21 -2 -34 -2h-110v109h294v-79l-83 -91c68 -17 97 -66 97 -126c0 -77 -59 -155 -173 -155zM392 0h-119l336 715h119zM800 0v87h-197v84
l171 270h150v-247h53v-107h-53v-87h-124zM722 194h78v90c0 25 4 50 4 50h-2s-9 -27 -21 -46l-59 -92v-2z" />
    <glyph glyph-name="questiondown" unicode="&#xbf;" horiz-adv-x="468" 
d="M188 365v150h158v-150h-158zM13 -14c0 164 171 188 171 277v31h166v-45c0 -135 -157 -159 -157 -243c0 -34 33 -59 71 -59c48 0 95 43 95 43l96 -117s-75 -83 -209 -83c-112 0 -233 67 -233 196z" />
    <glyph glyph-name="Agrave" unicode="&#xc0;" horiz-adv-x="662" 
d="M486 0l-44 150h-223l-43 -150h-180l243 715h184l243 -715h-180zM332 552h-2s-16 -78 -29 -123l-41 -139h141l-40 139c-13 45 -29 123 -29 123zM269 761l-118 150h171l81 -150h-134z" />
    <glyph glyph-name="Aacute" unicode="&#xc1;" horiz-adv-x="662" 
d="M486 0l-44 150h-223l-43 -150h-180l243 715h184l243 -715h-180zM332 552h-2s-16 -78 -29 -123l-41 -139h141l-40 139c-13 45 -29 123 -29 123zM259 761l81 150h171l-118 -150h-134z" />
    <glyph glyph-name="Acircumflex" unicode="&#xc2;" horiz-adv-x="662" 
d="M486 0l-44 150h-223l-43 -150h-180l243 715h184l243 -715h-180zM332 552h-2s-16 -78 -29 -123l-41 -139h141l-40 139c-13 45 -29 123 -29 123zM148 761l99 150h168l99 -150h-135l-47 82h-2l-47 -82h-135z" />
    <glyph glyph-name="Atilde" unicode="&#xc3;" horiz-adv-x="662" 
d="M486 0l-44 150h-223l-43 -150h-180l243 715h184l243 -715h-180zM332 552h-2s-16 -78 -29 -123l-41 -139h141l-40 139c-13 45 -29 123 -29 123zM130 761c0 101 41 153 128 153c67 0 88 -60 126 -60c24 0 37 19 37 57h112c0 -101 -41 -153 -128 -153c-67 0 -88 60 -126 60
c-24 0 -37 -19 -37 -57h-112z" />
    <glyph glyph-name="Adieresis" unicode="&#xc4;" horiz-adv-x="662" 
d="M486 0l-44 150h-223l-43 -150h-180l243 715h184l243 -715h-180zM332 552h-2s-16 -78 -29 -123l-41 -139h141l-40 139c-13 45 -29 123 -29 123zM373 771v140h126v-140h-126zM164 771v140h126v-140h-126z" />
    <glyph glyph-name="Aring" unicode="&#xc5;" horiz-adv-x="662" 
d="M486 0l-44 150h-223l-43 -150h-180l243 715h184l243 -715h-180zM332 552h-2s-16 -78 -29 -123l-41 -139h141l-40 139c-13 45 -29 123 -29 123zM331 747c-53 0 -109 26 -109 85s56 86 109 86s110 -27 110 -86s-57 -85 -110 -85zM331 797c21 0 35 14 35 35
c0 22 -14 36 -35 36c-20 0 -34 -14 -34 -36c0 -21 13 -35 34 -35z" />
    <glyph glyph-name="AE" unicode="&#xc6;" horiz-adv-x="955" 
d="M-10 0l299 715h610v-150h-273v-130h218v-150h-218v-135h286v-150h-461v288h-168l-111 -288h-182zM390 565l-53 -137h114v137h-61z" />
    <glyph glyph-name="Ccedilla" unicode="&#xc7;" horiz-adv-x="722" 
d="M37 359c0 208 160 368 375 368c177 0 268 -101 268 -101l-81 -132s-80 73 -179 73c-137 0 -202 -101 -202 -204c0 -106 70 -215 202 -215c108 0 190 88 190 88l90 -128s-93 -109 -263 -119l-6 -25c40 -4 75 -27 75 -80c0 -72 -60 -94 -117 -94c-38 0 -71 9 -71 9v87
s23 -10 45 -10s38 7 38 23c0 17 -21 21 -41 21c-13 0 -26 -2 -26 -2l23 73c-194 24 -320 174 -320 368z" />
    <glyph glyph-name="Egrave" unicode="&#xc8;" horiz-adv-x="588" 
d="M84 0v715h448v-150h-273v-130h218v-150h-218v-135h287v-150h-462zM254 761l-118 150h171l81 -150h-134z" />
    <glyph glyph-name="Eacute" unicode="&#xc9;" horiz-adv-x="588" 
d="M84 0v715h448v-150h-273v-130h218v-150h-218v-135h287v-150h-462zM244 761l81 150h171l-118 -150h-134z" />
    <glyph glyph-name="Ecircumflex" unicode="&#xca;" horiz-adv-x="588" 
d="M84 0v715h448v-150h-273v-130h218v-150h-218v-135h287v-150h-462zM133 761l99 150h168l99 -150h-135l-47 82h-2l-47 -82h-135z" />
    <glyph glyph-name="Edieresis" unicode="&#xcb;" horiz-adv-x="588" 
d="M84 0v715h448v-150h-273v-130h218v-150h-218v-135h287v-150h-462zM358 771v140h126v-140h-126zM149 771v140h126v-140h-126z" />
    <glyph glyph-name="Igrave" unicode="&#xcc;" horiz-adv-x="343" 
d="M84 0v715h175v-715h-175zM110 761l-118 150h171l81 -150h-134z" />
    <glyph glyph-name="Iacute" unicode="&#xcd;" horiz-adv-x="343" 
d="M84 0v715h175v-715h-175zM100 761l81 150h171l-118 -150h-134z" />
    <glyph glyph-name="Icircumflex" unicode="&#xce;" horiz-adv-x="343" 
d="M84 0v715h175v-715h-175zM-11 761l99 150h168l99 -150h-135l-47 82h-2l-47 -82h-135z" />
    <glyph glyph-name="Idieresis" unicode="&#xcf;" horiz-adv-x="343" 
d="M84 0v715h175v-715h-175zM214 771v140h126v-140h-126zM5 771v140h126v-140h-126z" />
    <glyph glyph-name="Eth" unicode="&#xd0;" horiz-adv-x="767" 
d="M48 284v140h57v291h254c225 0 369 -131 369 -356s-144 -359 -369 -359h-254v284h-57zM280 150h72c121 0 195 72 195 209c0 136 -77 206 -195 206h-72v-141h104v-140h-104v-134z" />
    <glyph glyph-name="Ntilde" unicode="&#xd1;" horiz-adv-x="772" 
d="M84 0v715h177l198 -334c28 -47 60 -122 60 -122h2s-8 77 -8 122v334h175v-715h-176l-199 333c-28 47 -60 122 -60 122h-2s8 -77 8 -122v-333h-175zM185 761c0 101 41 153 128 153c67 0 88 -60 126 -60c24 0 37 19 37 57h112c0 -101 -41 -153 -128 -153
c-67 0 -88 60 -126 60c-24 0 -37 -19 -37 -57h-112z" />
    <glyph glyph-name="Ograve" unicode="&#xd2;" horiz-adv-x="818" 
d="M35 362c0 205 158 365 374 365s374 -160 374 -365c0 -210 -158 -374 -374 -374s-374 164 -374 374zM216 362c0 -122 86 -214 193 -214s193 92 193 214c0 117 -86 205 -193 205s-193 -88 -193 -205zM347 761l-118 150h171l81 -150h-134z" />
    <glyph glyph-name="Oacute" unicode="&#xd3;" horiz-adv-x="818" 
d="M35 362c0 205 158 365 374 365s374 -160 374 -365c0 -210 -158 -374 -374 -374s-374 164 -374 374zM216 362c0 -122 86 -214 193 -214s193 92 193 214c0 117 -86 205 -193 205s-193 -88 -193 -205zM337 761l81 150h171l-118 -150h-134z" />
    <glyph glyph-name="Ocircumflex" unicode="&#xd4;" horiz-adv-x="818" 
d="M35 362c0 205 158 365 374 365s374 -160 374 -365c0 -210 -158 -374 -374 -374s-374 164 -374 374zM216 362c0 -122 86 -214 193 -214s193 92 193 214c0 117 -86 205 -193 205s-193 -88 -193 -205zM226 761l99 150h168l99 -150h-135l-47 82h-2l-47 -82h-135z" />
    <glyph glyph-name="Otilde" unicode="&#xd5;" horiz-adv-x="818" 
d="M35 362c0 205 158 365 374 365s374 -160 374 -365c0 -210 -158 -374 -374 -374s-374 164 -374 374zM216 362c0 -122 86 -214 193 -214s193 92 193 214c0 117 -86 205 -193 205s-193 -88 -193 -205zM208 761c0 101 41 153 128 153c67 0 88 -60 126 -60c24 0 37 19 37 57
h112c0 -101 -41 -153 -128 -153c-67 0 -88 60 -126 60c-24 0 -37 -19 -37 -57h-112z" />
    <glyph glyph-name="Odieresis" unicode="&#xd6;" horiz-adv-x="818" 
d="M35 362c0 205 158 365 374 365s374 -160 374 -365c0 -210 -158 -374 -374 -374s-374 164 -374 374zM216 362c0 -122 86 -214 193 -214s193 92 193 214c0 117 -86 205 -193 205s-193 -88 -193 -205zM451 771v140h126v-140h-126zM242 771v140h126v-140h-126z" />
    <glyph glyph-name="multiply" unicode="&#xd7;" horiz-adv-x="623" 
d="M40 92l182 195l-182 196l92 92l179 -192l180 192l92 -92l-183 -196l183 -195l-92 -92l-180 192l-179 -192z" />
    <glyph glyph-name="Oslash" unicode="&#xd8;" horiz-adv-x="820" 
d="M36 362c0 205 158 365 374 365c65 0 125 -14 176 -40l41 56l70 -47l-40 -55c79 -67 127 -166 127 -279c0 -210 -158 -374 -374 -374c-71 0 -135 17 -190 48l-46 -64l-70 48l48 66c-73 68 -116 165 -116 276zM603 362c0 54 -18 102 -48 137l-237 -327
c27 -15 59 -24 92 -24c107 0 193 90 193 214zM217 362c0 -51 14 -97 39 -132l232 320c-24 11 -50 17 -78 17c-107 0 -193 -86 -193 -205z" />
    <glyph glyph-name="Ugrave" unicode="&#xd9;" horiz-adv-x="746" 
d="M74 263v452h175v-452c0 -75 49 -115 124 -115s124 40 124 115v452h175v-452c0 -161 -118 -275 -298 -275c-182 0 -300 114 -300 275zM311 761l-118 150h171l81 -150h-134z" />
    <glyph glyph-name="Uacute" unicode="&#xda;" horiz-adv-x="746" 
d="M74 263v452h175v-452c0 -75 49 -115 124 -115s124 40 124 115v452h175v-452c0 -161 -118 -275 -298 -275c-182 0 -300 114 -300 275zM301 761l81 150h171l-118 -150h-134z" />
    <glyph glyph-name="Ucircumflex" unicode="&#xdb;" horiz-adv-x="746" 
d="M74 263v452h175v-452c0 -75 49 -115 124 -115s124 40 124 115v452h175v-452c0 -161 -118 -275 -298 -275c-182 0 -300 114 -300 275zM190 761l99 150h168l99 -150h-135l-47 82h-2l-47 -82h-135z" />
    <glyph glyph-name="Udieresis" unicode="&#xdc;" horiz-adv-x="746" 
d="M74 263v452h175v-452c0 -75 49 -115 124 -115s124 40 124 115v452h175v-452c0 -161 -118 -275 -298 -275c-182 0 -300 114 -300 275zM415 771v140h126v-140h-126zM206 771v140h126v-140h-126z" />
    <glyph glyph-name="Yacute" unicode="&#xdd;" horiz-adv-x="639" 
d="M232 0v293l-236 422h199l81 -172c23 -49 43 -103 43 -103h2s20 54 43 103l80 172h199l-236 -422v-293h-175zM248 761l81 150h171l-118 -150h-134z" />
    <glyph glyph-name="Thorn" unicode="&#xde;" horiz-adv-x="635" 
d="M84 0v715h175v-106h122c139 0 233 -102 233 -246s-94 -248 -233 -248h-122v-115h-175zM259 265h86c61 0 91 41 91 98s-30 96 -88 96h-89v-194z" />
    <glyph glyph-name="germandbls" unicode="&#xdf;" horiz-adv-x="638" 
d="M64 0v527c0 132 125 200 255 200c121 0 231 -77 231 -193c0 -81 -72 -105 -72 -160c0 -49 134 -79 134 -206c0 -117 -92 -175 -194 -175c-88 0 -124 21 -124 21v142s46 -19 95 -19c26 0 50 9 50 42c0 46 -135 80 -135 191c0 74 72 108 72 160c0 31 -23 53 -62 53
c-41 0 -77 -16 -77 -68v-515h-173z" />
    <glyph glyph-name="agrave" unicode="&#xe0;" horiz-adv-x="560" 
d="M25 154c0 150 219 167 299 167h7v9c0 43 -33 57 -76 57c-65 0 -139 -49 -139 -49l-60 122s89 67 216 67c145 0 232 -79 232 -210v-317h-158v31c0 17 2 32 2 32h-2s-38 -75 -146 -75c-96 0 -175 64 -175 166zM199 163c0 -24 15 -43 49 -43c45 0 85 49 85 91v11h-16
c-55 0 -118 -16 -118 -59zM218 565l-118 150h171l81 -150h-134z" />
    <glyph glyph-name="aacute" unicode="&#xe1;" horiz-adv-x="560" 
d="M25 154c0 150 219 167 299 167h7v9c0 43 -33 57 -76 57c-65 0 -139 -49 -139 -49l-60 122s89 67 216 67c145 0 232 -79 232 -210v-317h-158v31c0 17 2 32 2 32h-2s-38 -75 -146 -75c-96 0 -175 64 -175 166zM199 163c0 -24 15 -43 49 -43c45 0 85 49 85 91v11h-16
c-55 0 -118 -16 -118 -59zM207 565l81 150h171l-118 -150h-134z" />
    <glyph glyph-name="acircumflex" unicode="&#xe2;" horiz-adv-x="560" 
d="M25 154c0 150 219 167 299 167h7v9c0 43 -33 57 -76 57c-65 0 -139 -49 -139 -49l-60 122s89 67 216 67c145 0 232 -79 232 -210v-317h-158v31c0 17 2 32 2 32h-2s-38 -75 -146 -75c-96 0 -175 64 -175 166zM199 163c0 -24 15 -43 49 -43c45 0 85 49 85 91v11h-16
c-55 0 -118 -16 -118 -59zM96 565l99 150h168l99 -150h-135l-47 82h-2l-47 -82h-135z" />
    <glyph glyph-name="atilde" unicode="&#xe3;" horiz-adv-x="560" 
d="M25 154c0 150 219 167 299 167h7v9c0 43 -33 57 -76 57c-65 0 -139 -49 -139 -49l-60 122s89 67 216 67c145 0 232 -79 232 -210v-317h-158v31c0 17 2 32 2 32h-2s-38 -75 -146 -75c-96 0 -175 64 -175 166zM199 163c0 -24 15 -43 49 -43c45 0 85 49 85 91v11h-16
c-55 0 -118 -16 -118 -59zM78 565c0 101 41 153 128 153c67 0 88 -60 126 -60c24 0 37 19 37 57h112c0 -101 -41 -153 -128 -153c-67 0 -88 60 -126 60c-24 0 -37 -19 -37 -57h-112z" />
    <glyph glyph-name="adieresis" unicode="&#xe4;" horiz-adv-x="560" 
d="M25 154c0 150 219 167 299 167h7v9c0 43 -33 57 -76 57c-65 0 -139 -49 -139 -49l-60 122s89 67 216 67c145 0 232 -79 232 -210v-317h-158v31c0 17 2 32 2 32h-2s-38 -75 -146 -75c-96 0 -175 64 -175 166zM199 163c0 -24 15 -43 49 -43c45 0 85 49 85 91v11h-16
c-55 0 -118 -16 -118 -59zM321 575v140h126v-140h-126zM112 575v140h126v-140h-126z" />
    <glyph glyph-name="aring" unicode="&#xe5;" horiz-adv-x="560" 
d="M25 154c0 150 219 167 299 167h7v9c0 43 -33 57 -76 57c-65 0 -139 -49 -139 -49l-60 122s89 67 216 67c145 0 232 -79 232 -210v-317h-158v31c0 17 2 32 2 32h-2s-38 -75 -146 -75c-96 0 -175 64 -175 166zM199 163c0 -24 15 -43 49 -43c45 0 85 49 85 91v11h-16
c-55 0 -118 -16 -118 -59zM279 551c-53 0 -109 26 -109 85s56 86 109 86s110 -27 110 -86s-57 -85 -110 -85zM279 601c21 0 35 14 35 35c0 22 -14 36 -35 36c-20 0 -34 -14 -34 -36c0 -21 13 -35 34 -35z" />
    <glyph glyph-name="ae" unicode="&#xe6;" horiz-adv-x="855" 
d="M26 154c0 154 219 169 302 169h4v7c0 43 -33 57 -76 57c-65 0 -140 -49 -140 -49l-60 121s86 68 213 68c80 0 127 -19 163 -51h2c39 32 88 51 154 51c147 0 238 -108 238 -254c0 -17 -4 -49 -4 -49h-325c13 -65 65 -92 120 -92c74 0 142 51 142 51l64 -120
s-83 -75 -220 -75c-99 0 -162 35 -207 90h-2c-13 -23 -71 -89 -193 -89c-96 0 -175 64 -175 165zM501 323h151c0 37 -26 74 -64 74c-50 0 -76 -31 -87 -74zM200 163c0 -24 15 -43 51 -43c47 0 84 50 84 92v12h-17c-55 0 -118 -20 -118 -61z" />
    <glyph glyph-name="ccedilla" unicode="&#xe7;" horiz-adv-x="553" 
d="M28 258c0 138 102 269 287 269c140 0 205 -78 205 -78l-73 -116s-50 50 -121 50c-82 0 -123 -62 -123 -123s42 -128 129 -128c72 0 141 62 141 62l63 -121s-70 -76 -199 -84l-6 -25c40 -4 75 -27 75 -80c0 -72 -60 -94 -117 -94c-38 0 -71 9 -71 9v87s23 -10 45 -10
s38 7 38 23c0 17 -21 21 -41 21c-13 0 -26 -2 -26 -2l23 75c-147 23 -229 138 -229 265z" />
    <glyph glyph-name="egrave" unicode="&#xe8;" horiz-adv-x="563" 
d="M27 258c0 151 102 269 268 269c152 0 238 -106 238 -249c0 -17 -4 -54 -4 -54h-325c13 -63 65 -92 120 -92c74 0 142 52 142 52l64 -121s-83 -75 -220 -75c-184 0 -283 133 -283 270zM208 323h151c0 39 -27 74 -68 74c-50 0 -74 -36 -83 -74zM230 565l-118 150h171
l81 -150h-134z" />
    <glyph glyph-name="eacute" unicode="&#xe9;" horiz-adv-x="563" 
d="M27 258c0 151 102 269 268 269c152 0 238 -106 238 -249c0 -17 -4 -54 -4 -54h-325c13 -63 65 -92 120 -92c74 0 142 52 142 52l64 -121s-83 -75 -220 -75c-184 0 -283 133 -283 270zM208 323h151c0 39 -27 74 -68 74c-50 0 -74 -36 -83 -74zM219 565l81 150h171
l-118 -150h-134z" />
    <glyph glyph-name="ecircumflex" unicode="&#xea;" horiz-adv-x="563" 
d="M27 258c0 151 102 269 268 269c152 0 238 -106 238 -249c0 -17 -4 -54 -4 -54h-325c13 -63 65 -92 120 -92c74 0 142 52 142 52l64 -121s-83 -75 -220 -75c-184 0 -283 133 -283 270zM208 323h151c0 39 -27 74 -68 74c-50 0 -74 -36 -83 -74zM108 565l99 150h168l99 -150
h-135l-47 82h-2l-47 -82h-135z" />
    <glyph glyph-name="edieresis" unicode="&#xeb;" horiz-adv-x="563" 
d="M27 258c0 151 102 269 268 269c152 0 238 -106 238 -249c0 -17 -4 -54 -4 -54h-325c13 -63 65 -92 120 -92c74 0 142 52 142 52l64 -121s-83 -75 -220 -75c-184 0 -283 133 -283 270zM208 323h151c0 39 -27 74 -68 74c-50 0 -74 -36 -83 -74zM333 575v140h126v-140h-126z
M124 575v140h126v-140h-126z" />
    <glyph glyph-name="igrave" unicode="&#xec;" horiz-adv-x="301" 
d="M64 0v515h173v-515h-173zM88 565l-118 150h171l81 -150h-134z" />
    <glyph glyph-name="iacute" unicode="&#xed;" horiz-adv-x="301" 
d="M64 0v515h173v-515h-173zM78 565l81 150h171l-118 -150h-134z" />
    <glyph glyph-name="icircumflex" unicode="&#xee;" horiz-adv-x="301" 
d="M64 0v515h173v-515h-173zM-33 565l99 150h168l99 -150h-135l-47 82h-2l-47 -82h-135z" />
    <glyph glyph-name="idieresis" unicode="&#xef;" horiz-adv-x="301" 
d="M64 0v515h173v-515h-173zM192 575v140h126v-140h-126zM-17 575v140h126v-140h-126z" />
    <glyph glyph-name="eth" unicode="&#xf0;" horiz-adv-x="596" 
d="M30 241c0 116 87 223 231 223c39 0 69 -9 69 -9h2c-14 21 -40 46 -70 63l-192 -79v95l92 39c-33 14 -68 25 -95 30l48 135c86 -18 165 -48 232 -89l161 67v-95l-81 -34c79 -76 127 -177 127 -304c0 -138 -69 -295 -270 -295c-162 0 -254 123 -254 253zM204 236
c0 -53 22 -104 83 -104c69 0 93 61 93 118c0 48 -30 82 -83 82c-63 0 -93 -45 -93 -96z" />
    <glyph glyph-name="ntilde" unicode="&#xf1;" horiz-adv-x="636" 
d="M64 0v515h166v-45c0 -17 -2 -32 -2 -32h2c24 40 73 89 164 89c104 0 185 -48 185 -193v-334h-173v302c0 48 -19 68 -57 68c-54 0 -87 -30 -102 -74c-7 -20 -10 -43 -10 -68v-228h-173zM124 565c0 101 41 153 128 153c67 0 88 -60 126 -60c24 0 37 19 37 57h112
c0 -101 -41 -153 -128 -153c-67 0 -88 60 -126 60c-24 0 -37 -19 -37 -57h-112z" />
    <glyph glyph-name="ograve" unicode="&#xf2;" horiz-adv-x="636" 
d="M26 256c0 162 130 271 291 271c163 0 293 -109 293 -271c0 -161 -130 -268 -292 -268s-292 107 -292 268zM201 256c0 -77 54 -124 117 -124s117 47 117 124c0 78 -54 127 -117 127s-117 -49 -117 -127zM256 565l-118 150h171l81 -150h-134z" />
    <glyph glyph-name="oacute" unicode="&#xf3;" horiz-adv-x="636" 
d="M26 256c0 162 130 271 291 271c163 0 293 -109 293 -271c0 -161 -130 -268 -292 -268s-292 107 -292 268zM201 256c0 -77 54 -124 117 -124s117 47 117 124c0 78 -54 127 -117 127s-117 -49 -117 -127zM246 565l81 150h171l-118 -150h-134z" />
    <glyph glyph-name="ocircumflex" unicode="&#xf4;" horiz-adv-x="636" 
d="M26 256c0 162 130 271 291 271c163 0 293 -109 293 -271c0 -161 -130 -268 -292 -268s-292 107 -292 268zM201 256c0 -77 54 -124 117 -124s117 47 117 124c0 78 -54 127 -117 127s-117 -49 -117 -127zM135 565l99 150h168l99 -150h-135l-47 82h-2l-47 -82h-135z" />
    <glyph glyph-name="otilde" unicode="&#xf5;" horiz-adv-x="636" 
d="M26 256c0 162 130 271 291 271c163 0 293 -109 293 -271c0 -161 -130 -268 -292 -268s-292 107 -292 268zM201 256c0 -77 54 -124 117 -124s117 47 117 124c0 78 -54 127 -117 127s-117 -49 -117 -127zM117 565c0 101 41 153 128 153c67 0 88 -60 126 -60
c24 0 37 19 37 57h112c0 -101 -41 -153 -128 -153c-67 0 -88 60 -126 60c-24 0 -37 -19 -37 -57h-112z" />
    <glyph glyph-name="odieresis" unicode="&#xf6;" horiz-adv-x="636" 
d="M26 256c0 162 130 271 291 271c163 0 293 -109 293 -271c0 -161 -130 -268 -292 -268s-292 107 -292 268zM201 256c0 -77 54 -124 117 -124s117 47 117 124c0 78 -54 127 -117 127s-117 -49 -117 -127zM360 575v140h126v-140h-126zM151 575v140h126v-140h-126z" />
    <glyph glyph-name="divide" unicode="&#xf7;" horiz-adv-x="712" 
d="M283 440v135h146v-135h-146zM83 222v130h546v-130h-546zM283 0v135h146v-135h-146z" />
    <glyph glyph-name="oslash" unicode="&#xf8;" horiz-adv-x="635" 
d="M25 256c0 162 130 271 291 271c47 0 91 -9 131 -26l42 58l66 -45l-40 -55c58 -48 94 -118 94 -203c0 -161 -130 -268 -292 -268c-45 0 -87 8 -124 23l-44 -61l-66 46l39 55c-60 47 -97 118 -97 205zM200 256c0 -28 7 -52 19 -71l138 191c-13 4 -26 7 -40 7
c-63 0 -117 -49 -117 -127zM434 256c0 26 -6 48 -16 67l-135 -187c11 -3 22 -4 34 -4c63 0 117 47 117 124z" />
    <glyph glyph-name="ugrave" unicode="&#xf9;" horiz-adv-x="631" 
d="M57 181v334h173v-302c0 -48 19 -68 55 -68c74 0 109 65 109 142v228h173v-515h-166v45c0 17 2 32 2 32h-2c-28 -55 -92 -89 -161 -89c-102 0 -183 48 -183 193zM250 565l-118 150h171l81 -150h-134z" />
    <glyph glyph-name="uacute" unicode="&#xfa;" horiz-adv-x="631" 
d="M57 181v334h173v-302c0 -48 19 -68 55 -68c74 0 109 65 109 142v228h173v-515h-166v45c0 17 2 32 2 32h-2c-28 -55 -92 -89 -161 -89c-102 0 -183 48 -183 193zM240 565l81 150h171l-118 -150h-134z" />
    <glyph glyph-name="ucircumflex" unicode="&#xfb;" horiz-adv-x="631" 
d="M57 181v334h173v-302c0 -48 19 -68 55 -68c74 0 109 65 109 142v228h173v-515h-166v45c0 17 2 32 2 32h-2c-28 -55 -92 -89 -161 -89c-102 0 -183 48 -183 193zM129 565l99 150h168l99 -150h-135l-47 82h-2l-47 -82h-135z" />
    <glyph glyph-name="udieresis" unicode="&#xfc;" horiz-adv-x="631" 
d="M57 181v334h173v-302c0 -48 19 -68 55 -68c74 0 109 65 109 142v228h173v-515h-166v45c0 17 2 32 2 32h-2c-28 -55 -92 -89 -161 -89c-102 0 -183 48 -183 193zM354 575v140h126v-140h-126zM145 575v140h126v-140h-126z" />
    <glyph glyph-name="yacute" unicode="&#xfd;" horiz-adv-x="546" 
d="M1 -174l55 127s28 -19 53 -19c28 0 65 8 83 52l10 24l-219 505h196l76 -237c9 -28 19 -80 19 -80h2s10 49 17 77l65 240h189l-211 -570c-43 -115 -133 -155 -215 -155c-68 0 -120 36 -120 36zM203 564l81 150h171l-118 -150h-134z" />
    <glyph glyph-name="thorn" unicode="&#xfe;" horiz-adv-x="635" 
d="M64 -200v915h173v-197c0 -26 -2 -44 -2 -44h2c31 34 72 53 134 53c142 0 236 -117 236 -269s-94 -270 -236 -270c-97 0 -134 48 -134 48h-2s2 -18 2 -44v-192h-173zM232 257c0 -95 46 -125 104 -125c60 0 97 58 97 126s-37 125 -97 125c-58 0 -104 -31 -104 -126z" />
    <glyph glyph-name="ydieresis" unicode="&#xff;" horiz-adv-x="546" 
d="M1 -174l55 127s28 -19 53 -19c28 0 65 8 83 52l10 24l-219 505h196l76 -237c9 -28 19 -80 19 -80h2s10 49 17 77l65 240h189l-211 -570c-43 -115 -133 -155 -215 -155c-68 0 -120 36 -120 36zM317 574v140h126v-140h-126zM108 574v140h126v-140h-126z" />
    <glyph glyph-name="Amacron" unicode="&#x100;" horiz-adv-x="662" 
d="M486 0l-44 150h-223l-43 -150h-180l243 715h184l243 -715h-180zM332 552h-2s-16 -78 -29 -123l-41 -139h141l-40 139c-13 45 -29 123 -29 123zM194 782v112h275v-112h-275z" />
    <glyph glyph-name="amacron" unicode="&#x101;" horiz-adv-x="560" 
d="M25 154c0 150 219 167 299 167h7v9c0 43 -33 57 -76 57c-65 0 -139 -49 -139 -49l-60 122s89 67 216 67c145 0 232 -79 232 -210v-317h-158v31c0 17 2 32 2 32h-2s-38 -75 -146 -75c-96 0 -175 64 -175 166zM199 163c0 -24 15 -43 49 -43c45 0 85 49 85 91v11h-16
c-55 0 -118 -16 -118 -59zM142 586v112h275v-112h-275z" />
    <glyph glyph-name="Abreve" unicode="&#x102;" horiz-adv-x="662" 
d="M486 0l-44 150h-223l-43 -150h-180l243 715h184l243 -715h-180zM332 552h-2s-16 -78 -29 -123l-41 -139h141l-40 139c-13 45 -29 123 -29 123zM331 756c-93 0 -174 52 -174 145v10h117v-11c0 -40 30 -58 57 -58s57 18 57 58v11h117v-10c0 -93 -81 -145 -174 -145z" />
    <glyph glyph-name="abreve" unicode="&#x103;" horiz-adv-x="560" 
d="M25 154c0 150 219 167 299 167h7v9c0 43 -33 57 -76 57c-65 0 -139 -49 -139 -49l-60 122s89 67 216 67c145 0 232 -79 232 -210v-317h-158v31c0 17 2 32 2 32h-2s-38 -75 -146 -75c-96 0 -175 64 -175 166zM199 163c0 -24 15 -43 49 -43c45 0 85 49 85 91v11h-16
c-55 0 -118 -16 -118 -59zM279 560c-93 0 -174 52 -174 145v10h117v-11c0 -40 30 -58 57 -58s57 18 57 58v11h117v-10c0 -93 -81 -145 -174 -145z" />
    <glyph glyph-name="Aogonek" unicode="&#x104;" horiz-adv-x="662" 
d="M486 0l-44 150h-223l-43 -150h-180l243 715h184l243 -715c-17 -16 -43 -43 -43 -61c0 -22 38 -25 38 -25l-42 -124s-133 13 -133 99c0 50 40 89 63 109v2h-63zM332 552h-2s-16 -78 -29 -123l-41 -139h141l-40 139c-13 45 -29 123 -29 123z" />
    <glyph glyph-name="aogonek" unicode="&#x105;" horiz-adv-x="560" 
d="M25 154c0 150 219 167 299 167h7v9c0 43 -33 57 -76 57c-65 0 -139 -49 -139 -49l-60 122s89 67 216 67c145 0 232 -79 232 -210v-317c-17 -16 -43 -43 -43 -61c0 -22 38 -25 38 -25l-42 -124s-133 13 -133 99c0 50 40 89 63 109v2h-41v31c0 17 2 32 2 32h-2
s-38 -75 -146 -75c-96 0 -175 64 -175 166zM199 163c0 -24 15 -43 49 -43c45 0 85 49 85 91v11h-16c-55 0 -118 -16 -118 -59z" />
    <glyph glyph-name="Cacute" unicode="&#x106;" horiz-adv-x="720" 
d="M35 359c0 208 160 368 375 368c177 0 268 -101 268 -101l-81 -132s-80 73 -179 73c-137 0 -202 -101 -202 -204c0 -106 70 -215 202 -215c108 0 190 88 190 88l90 -128s-101 -120 -288 -120c-224 0 -375 159 -375 371zM328 761l81 150h171l-118 -150h-134z" />
    <glyph glyph-name="cacute" unicode="&#x107;" horiz-adv-x="551" 
d="M26 258c0 138 102 269 287 269c140 0 205 -78 205 -78l-73 -116s-50 50 -121 50c-82 0 -123 -62 -123 -123s42 -128 129 -128c72 0 141 62 141 62l63 -121s-77 -85 -221 -85c-184 0 -287 128 -287 270zM221 565l81 150h171l-118 -150h-134z" />
    <glyph glyph-name="Ccircumflex" unicode="&#x108;" horiz-adv-x="720" 
d="M35 359c0 208 160 368 375 368c177 0 268 -101 268 -101l-81 -132s-80 73 -179 73c-137 0 -202 -101 -202 -204c0 -106 70 -215 202 -215c108 0 190 88 190 88l90 -128s-101 -120 -288 -120c-224 0 -375 159 -375 371zM217 761l99 150h168l99 -150h-135l-47 82h-2
l-47 -82h-135z" />
    <glyph glyph-name="ccircumflex" unicode="&#x109;" horiz-adv-x="551" 
d="M26 258c0 138 102 269 287 269c140 0 205 -78 205 -78l-73 -116s-50 50 -121 50c-82 0 -123 -62 -123 -123s42 -128 129 -128c72 0 141 62 141 62l63 -121s-77 -85 -221 -85c-184 0 -287 128 -287 270zM110 565l99 150h168l99 -150h-135l-47 82h-2l-47 -82h-135z" />
    <glyph glyph-name="Cdotaccent" unicode="&#x10a;" horiz-adv-x="720" 
d="M35 359c0 208 160 368 375 368c177 0 268 -101 268 -101l-81 -132s-80 73 -179 73c-137 0 -202 -101 -202 -204c0 -106 70 -215 202 -215c108 0 190 88 190 88l90 -128s-101 -120 -288 -120c-224 0 -375 159 -375 371zM329 779v132h143v-132h-143z" />
    <glyph glyph-name="cdotaccent" unicode="&#x10b;" horiz-adv-x="551" 
d="M26 258c0 138 102 269 287 269c140 0 205 -78 205 -78l-73 -116s-50 50 -121 50c-82 0 -123 -62 -123 -123s42 -128 129 -128c72 0 141 62 141 62l63 -121s-77 -85 -221 -85c-184 0 -287 128 -287 270zM222 583v132h143v-132h-143z" />
    <glyph glyph-name="Ccaron" unicode="&#x10c;" horiz-adv-x="720" 
d="M35 359c0 208 160 368 375 368c177 0 268 -101 268 -101l-81 -132s-80 73 -179 73c-137 0 -202 -101 -202 -204c0 -106 70 -215 202 -215c108 0 190 88 190 88l90 -128s-101 -120 -288 -120c-224 0 -375 159 -375 371zM316 761l-99 150h135l47 -82h2l47 82h135l-99 -150
h-168z" />
    <glyph glyph-name="ccaron" unicode="&#x10d;" horiz-adv-x="551" 
d="M26 258c0 138 102 269 287 269c140 0 205 -78 205 -78l-73 -116s-50 50 -121 50c-82 0 -123 -62 -123 -123s42 -128 129 -128c72 0 141 62 141 62l63 -121s-77 -85 -221 -85c-184 0 -287 128 -287 270zM209 565l-99 150h135l47 -82h2l47 82h135l-99 -150h-168z" />
    <glyph glyph-name="Dcaron" unicode="&#x10e;" horiz-adv-x="746" 
d="M84 0v715h254c225 0 369 -131 369 -356s-144 -359 -369 -359h-254zM259 150h72c121 0 195 72 195 209c0 136 -77 206 -195 206h-72v-415zM268 761l-99 150h135l47 -82h2l47 82h135l-99 -150h-168z" />
    <glyph glyph-name="dcaron" unicode="&#x10f;" horiz-adv-x="667" 
d="M29 258c0 163 98 269 235 269c104 0 135 -41 135 -41h2s-1 10 -1 23v206h173v-715h-162v34c0 16 1 29 1 29h-2s-43 -75 -149 -75c-140 0 -232 110 -232 270zM203 258c0 -77 41 -127 101 -127c52 0 101 38 101 127c0 62 -33 123 -101 123c-54 0 -101 -44 -101 -123z
M619 715h136c5 -21 7 -39 7 -58c0 -35 -9 -65 -28 -103h-123c12 35 20 63 20 93c0 19 -3 42 -12 68z" />
    <glyph glyph-name="Dcroat" unicode="&#x110;" horiz-adv-x="767" 
d="M48 284v140h57v291h254c225 0 369 -131 369 -356s-144 -359 -369 -359h-254v284h-57zM280 150h72c121 0 195 72 195 209c0 136 -77 206 -195 206h-72v-141h104v-140h-104v-134z" />
    <glyph glyph-name="dcroat" unicode="&#x111;" horiz-adv-x="637" 
d="M274 554v95h126v66h173v-66h66v-95h-66v-554h-162v34c0 16 1 29 1 29h-2s-43 -75 -149 -75c-140 0 -232 110 -232 270c0 163 98 269 235 269c104 0 135 -41 135 -41h2s-1 10 -1 23v45h-126zM203 258c0 -77 41 -127 101 -127c52 0 101 38 101 127c0 62 -33 123 -101 123
c-54 0 -101 -44 -101 -123z" />
    <glyph glyph-name="Emacron" unicode="&#x112;" horiz-adv-x="588" 
d="M84 0v715h448v-150h-273v-130h218v-150h-218v-135h287v-150h-462zM179 782v112h275v-112h-275z" />
    <glyph glyph-name="emacron" unicode="&#x113;" horiz-adv-x="563" 
d="M27 258c0 151 102 269 268 269c152 0 238 -106 238 -249c0 -17 -4 -54 -4 -54h-325c13 -63 65 -92 120 -92c74 0 142 52 142 52l64 -121s-83 -75 -220 -75c-184 0 -283 133 -283 270zM208 323h151c0 39 -27 74 -68 74c-50 0 -74 -36 -83 -74zM154 586v112h275v-112h-275z
" />
    <glyph glyph-name="Ebreve" unicode="&#x114;" horiz-adv-x="588" 
d="M84 0v715h448v-150h-273v-130h218v-150h-218v-135h287v-150h-462zM316 756c-93 0 -174 52 -174 145v10h117v-11c0 -40 30 -58 57 -58s57 18 57 58v11h117v-10c0 -93 -81 -145 -174 -145z" />
    <glyph glyph-name="ebreve" unicode="&#x115;" horiz-adv-x="563" 
d="M27 258c0 151 102 269 268 269c152 0 238 -106 238 -249c0 -17 -4 -54 -4 -54h-325c13 -63 65 -92 120 -92c74 0 142 52 142 52l64 -121s-83 -75 -220 -75c-184 0 -283 133 -283 270zM208 323h151c0 39 -27 74 -68 74c-50 0 -74 -36 -83 -74zM291 560
c-93 0 -174 52 -174 145v10h117v-11c0 -40 30 -58 57 -58s57 18 57 58v11h117v-10c0 -93 -81 -145 -174 -145z" />
    <glyph glyph-name="Edotaccent" unicode="&#x116;" horiz-adv-x="588" 
d="M84 0v715h448v-150h-273v-130h218v-150h-218v-135h287v-150h-462zM245 779v132h143v-132h-143z" />
    <glyph glyph-name="edotaccent" unicode="&#x117;" horiz-adv-x="563" 
d="M27 258c0 151 102 269 268 269c152 0 238 -106 238 -249c0 -17 -4 -54 -4 -54h-325c13 -63 65 -92 120 -92c74 0 142 52 142 52l64 -121s-83 -75 -220 -75c-184 0 -283 133 -283 270zM208 323h151c0 39 -27 74 -68 74c-50 0 -74 -36 -83 -74zM220 583v132h143v-132h-143z
" />
    <glyph glyph-name="Eogonek" unicode="&#x118;" horiz-adv-x="588" 
d="M84 0v715h448v-150h-273v-130h218v-150h-218v-135h287v-150c-17 -16 -43 -43 -43 -61c0 -22 38 -25 38 -25l-42 -124s-133 13 -133 99c0 51 42 89 66 109v2h-348z" />
    <glyph glyph-name="eogonek" unicode="&#x119;" horiz-adv-x="565" 
d="M27 258c0 151 102 269 268 269c152 0 238 -106 238 -249c0 -17 -4 -54 -4 -54h-325c13 -63 65 -92 120 -92c74 0 142 52 142 52l63 -120c-31 -32 -107 -69 -107 -125c0 -22 38 -25 38 -25l-42 -124s-133 13 -133 99c0 44 31 76 61 100v2c-13 -2 -22 -3 -36 -3
c-184 0 -283 133 -283 270zM208 323h151c0 39 -27 74 -68 74c-50 0 -74 -36 -83 -74z" />
    <glyph glyph-name="Ecaron" unicode="&#x11a;" horiz-adv-x="588" 
d="M84 0v715h448v-150h-273v-130h218v-150h-218v-135h287v-150h-462zM232 761l-99 150h135l47 -82h2l47 82h135l-99 -150h-168z" />
    <glyph glyph-name="ecaron" unicode="&#x11b;" horiz-adv-x="563" 
d="M27 258c0 151 102 269 268 269c152 0 238 -106 238 -249c0 -17 -4 -54 -4 -54h-325c13 -63 65 -92 120 -92c74 0 142 52 142 52l64 -121s-83 -75 -220 -75c-184 0 -283 133 -283 270zM208 323h151c0 39 -27 74 -68 74c-50 0 -74 -36 -83 -74zM207 565l-99 150h135l47 -82
h2l47 82h135l-99 -150h-168z" />
    <glyph glyph-name="Gcircumflex" unicode="&#x11c;" horiz-adv-x="770" 
d="M36 359c0 208 157 368 375 368c183 0 275 -95 275 -95l-84 -131s-73 66 -174 66c-150 0 -211 -96 -211 -202c0 -136 94 -217 205 -217c84 0 145 52 145 52v55h-101v149h256v-404h-146v20c0 15 1 30 1 30h-2s-69 -62 -188 -62c-183 0 -351 137 -351 371zM218 761l99 150
h168l99 -150h-135l-47 82h-2l-47 -82h-135z" />
    <glyph glyph-name="gcircumflex" unicode="&#x11d;" horiz-adv-x="629" 
d="M128 -33c0 0 64 -33 145 -33c62 0 119 23 119 99v17c0 6 1 19 1 19h-2c-30 -36 -69 -54 -129 -54c-155 0 -232 127 -232 259c0 131 75 253 231 253c94 0 140 -50 140 -50h3s-1 6 -1 12v26h162v-468c0 -188 -150 -257 -291 -257c-69 0 -145 20 -195 46zM303 159
c45 0 93 23 93 113c0 91 -48 111 -100 111c-61 0 -92 -44 -92 -103c0 -64 30 -121 99 -121zM119 565l99 150h168l99 -150h-135l-47 82h-2l-47 -82h-135z" />
    <glyph glyph-name="Gbreve" unicode="&#x11e;" horiz-adv-x="770" 
d="M36 359c0 208 157 368 375 368c183 0 275 -95 275 -95l-84 -131s-73 66 -174 66c-150 0 -211 -96 -211 -202c0 -136 94 -217 205 -217c84 0 145 52 145 52v55h-101v149h256v-404h-146v20c0 15 1 30 1 30h-2s-69 -62 -188 -62c-183 0 -351 137 -351 371zM401 756
c-93 0 -174 52 -174 145v10h117v-11c0 -40 30 -58 57 -58s57 18 57 58v11h117v-10c0 -93 -81 -145 -174 -145z" />
    <glyph glyph-name="gbreve" unicode="&#x11f;" horiz-adv-x="629" 
d="M128 -33c0 0 64 -33 145 -33c62 0 119 23 119 99v17c0 6 1 19 1 19h-2c-30 -36 -69 -54 -129 -54c-155 0 -232 127 -232 259c0 131 75 253 231 253c94 0 140 -50 140 -50h3s-1 6 -1 12v26h162v-468c0 -188 -150 -257 -291 -257c-69 0 -145 20 -195 46zM303 159
c45 0 93 23 93 113c0 91 -48 111 -100 111c-61 0 -92 -44 -92 -103c0 -64 30 -121 99 -121zM302 560c-93 0 -174 52 -174 145v10h117v-11c0 -40 30 -58 57 -58s57 18 57 58v11h117v-10c0 -93 -81 -145 -174 -145z" />
    <glyph glyph-name="Gdotaccent" unicode="&#x120;" horiz-adv-x="770" 
d="M36 359c0 208 157 368 375 368c183 0 275 -95 275 -95l-84 -131s-73 66 -174 66c-150 0 -211 -96 -211 -202c0 -136 94 -217 205 -217c84 0 145 52 145 52v55h-101v149h256v-404h-146v20c0 15 1 30 1 30h-2s-69 -62 -188 -62c-183 0 -351 137 -351 371zM330 779v132h143
v-132h-143z" />
    <glyph glyph-name="gdotaccent" unicode="&#x121;" horiz-adv-x="629" 
d="M128 -33c0 0 64 -33 145 -33c62 0 119 23 119 99v17c0 6 1 19 1 19h-2c-30 -36 -69 -54 -129 -54c-155 0 -232 127 -232 259c0 131 75 253 231 253c94 0 140 -50 140 -50h3s-1 6 -1 12v26h162v-468c0 -188 -150 -257 -291 -257c-69 0 -145 20 -195 46zM303 159
c45 0 93 23 93 113c0 91 -48 111 -100 111c-61 0 -92 -44 -92 -103c0 -64 30 -121 99 -121zM231 583v132h143v-132h-143z" />
    <glyph glyph-name="Gcommaaccent" unicode="&#x122;" horiz-adv-x="770" 
d="M36 359c0 208 157 368 375 368c183 0 275 -95 275 -95l-84 -131s-73 66 -174 66c-150 0 -211 -96 -211 -202c0 -136 94 -217 205 -217c84 0 145 52 145 52v55h-101v149h256v-404h-146v20c0 15 1 30 1 30h-2s-69 -62 -188 -62c-183 0 -351 137 -351 371zM316 -49h136
c5 -21 7 -39 7 -58c0 -35 -9 -65 -28 -103h-123c12 35 20 63 20 93c0 19 -3 42 -12 68z" />
    <glyph glyph-name="gcommaaccent" unicode="&#x123;" horiz-adv-x="629" 
d="M128 -33c0 0 64 -33 145 -33c62 0 119 23 119 99v17c0 6 1 19 1 19h-2c-30 -36 -69 -54 -129 -54c-155 0 -232 127 -232 259c0 131 75 253 231 253c94 0 140 -50 140 -50h3s-1 6 -1 12v26h162v-468c0 -188 -150 -257 -291 -257c-69 0 -145 20 -195 46zM303 159
c45 0 93 23 93 113c0 91 -48 111 -100 111c-61 0 -92 -44 -92 -103c0 -64 30 -121 99 -121zM373 560h-135c-5 20 -7 38 -7 56c0 34 9 63 27 99h123c-12 -34 -20 -60 -20 -89c0 -19 3 -41 12 -66z" />
    <glyph glyph-name="Hcircumflex" unicode="&#x124;" horiz-adv-x="778" 
d="M84 0v715h175v-286h260v286h175v-715h-175v280h-260v-280h-175zM206 761l99 150h168l99 -150h-135l-47 82h-2l-47 -82h-135z" />
    <glyph glyph-name="hcircumflex" unicode="&#x125;" horiz-adv-x="636" 
d="M64 0v715h173v-226c0 -26 -2 -44 -2 -44h2c29 51 89 82 157 82c104 0 185 -48 185 -193v-334h-173v302c0 48 -19 68 -57 68c-53 0 -88 -31 -103 -76c-7 -20 -9 -42 -9 -66v-228h-173zM-32 761l99 150h168l99 -150h-135l-47 82h-2l-47 -82h-135z" />
    <glyph glyph-name="Hbar" unicode="&#x126;" horiz-adv-x="810" 
d="M105 0v517h-66v107h66v91h179v-91h242v91h179v-91h65v-107h-65v-517h-179v280h-242v-280h-179zM284 429h242v88h-242v-88z" />
    <glyph glyph-name="hbar" unicode="&#x127;" horiz-adv-x="636" 
d="M64 0v554h-58v95h58v66h173v-66h134v-95h-134v-65c0 -26 -2 -44 -2 -44h2c29 51 89 82 157 82c104 0 185 -48 185 -193v-334h-173v302c0 48 -19 68 -57 68c-53 0 -88 -31 -103 -76c-7 -20 -9 -42 -9 -66v-228h-173z" />
    <glyph glyph-name="Itilde" unicode="&#x128;" horiz-adv-x="343" 
d="M84 0v715h175v-715h-175zM-29 761c0 101 41 153 128 153c67 0 88 -60 126 -60c24 0 37 19 37 57h112c0 -101 -41 -153 -128 -153c-67 0 -88 60 -126 60c-24 0 -37 -19 -37 -57h-112z" />
    <glyph glyph-name="itilde" unicode="&#x129;" horiz-adv-x="301" 
d="M64 0v515h173v-515h-173zM-51 565c0 101 41 153 128 153c67 0 88 -60 126 -60c24 0 37 19 37 57h112c0 -101 -41 -153 -128 -153c-67 0 -88 60 -126 60c-24 0 -37 -19 -37 -57h-112z" />
    <glyph glyph-name="Imacron" unicode="&#x12a;" horiz-adv-x="343" 
d="M84 0v715h175v-715h-175zM35 782v112h275v-112h-275z" />
    <glyph glyph-name="imacron" unicode="&#x12b;" horiz-adv-x="301" 
d="M64 0v515h173v-515h-173zM13 586v112h275v-112h-275z" />
    <glyph glyph-name="Ibreve" unicode="&#x12c;" horiz-adv-x="343" 
d="M84 0v715h175v-715h-175zM172 756c-93 0 -174 52 -174 145v10h117v-11c0 -40 30 -58 57 -58s57 18 57 58v11h117v-10c0 -93 -81 -145 -174 -145z" />
    <glyph glyph-name="ibreve" unicode="&#x12d;" horiz-adv-x="301" 
d="M64 0v515h173v-515h-173zM150 560c-93 0 -174 52 -174 145v10h117v-11c0 -40 30 -58 57 -58s57 18 57 58v11h117v-10c0 -93 -81 -145 -174 -145z" />
    <glyph glyph-name="Iogonek" unicode="&#x12e;" horiz-adv-x="343" 
d="M84 0v715h175v-715c-17 -16 -43 -43 -43 -61c0 -22 38 -25 38 -25l-42 -124s-133 13 -133 99c0 51 42 89 66 109v2h-61z" />
    <glyph glyph-name="iogonek" unicode="&#x12f;" horiz-adv-x="301" 
d="M64 0v515h173v-515c-17 -16 -43 -43 -43 -61c0 -22 38 -25 38 -25l-42 -124s-133 13 -133 99c0 51 42 89 66 109v2h-59zM66 580v135h169v-135h-169z" />
    <glyph glyph-name="Idotaccent" unicode="&#x130;" horiz-adv-x="343" 
d="M84 0v715h175v-715h-175zM101 779v132h143v-132h-143z" />
    <glyph glyph-name="dotlessi" unicode="&#x131;" horiz-adv-x="301" 
d="M64 0v515h173v-515h-173z" />
    <glyph glyph-name="IJ" unicode="&#x132;" horiz-adv-x="696" 
d="M327 -4v158c42 0 116 24 116 116v445h179v-447c0 -227 -163 -272 -295 -272zM84 0v715h175v-715h-175z" />
    <glyph glyph-name="ij" unicode="&#x133;" horiz-adv-x="602" 
d="M66 580v135h169v-135h-169zM64 0v515h173v-515h-173zM367 580v135h169v-135h-169zM365 515h173v-528c0 -173 -162 -195 -242 -195c-28 0 -46 3 -46 3v144s9 -1 22 -1c34 0 93 8 93 66v511z" />
    <glyph glyph-name="Jcircumflex" unicode="&#x134;" horiz-adv-x="575" 
d="M21 220v52h175v-38c0 -27 5 -47 14 -60c12 -19 32 -26 52 -26c37 0 63 24 63 76v341h-192v150h367v-495c0 -157 -120 -232 -240 -232s-239 77 -239 232zM129 761l99 150h168l99 -150h-135l-47 82h-2l-47 -82h-135z" />
    <glyph glyph-name="jcircumflex" unicode="&#x135;" horiz-adv-x="301" 
d="M64 515h173v-528c0 -173 -162 -195 -242 -195c-28 0 -46 3 -46 3v144s9 -1 22 -1c34 0 93 8 93 66v511zM-24 565l99 150h152l99 -150h-127l-47 82h-2l-47 -82h-127z" />
    <glyph glyph-name="Kcommaaccent" unicode="&#x136;" horiz-adv-x="692" 
d="M84 0v715h175v-276h72l148 276h188l-193 -342v-2l204 -371h-196l-151 290h-72v-290h-175zM280 -49h136c5 -21 7 -39 7 -58c0 -35 -9 -65 -28 -103h-123c12 35 20 63 20 93c0 19 -3 42 -12 68z" />
    <glyph glyph-name="kcommaaccent" unicode="&#x137;" horiz-adv-x="599" 
d="M64 0v715h173v-370h49l102 170h188l-151 -234v-2l172 -279h-197l-109 200h-54v-200h-173zM239 -49h136c5 -21 7 -39 7 -58c0 -35 -9 -65 -28 -103h-123c12 35 20 63 20 93c0 19 -3 42 -12 68z" />
    <glyph glyph-name="kgreenlandic" unicode="&#x138;" horiz-adv-x="600" 
d="M64 0v515h173v-180h49l105 180h188l-154 -244v-2l166 -269h-200l-100 190h-54v-190h-173z" />
    <glyph glyph-name="Lacute" unicode="&#x139;" horiz-adv-x="563" 
d="M84 0v715h175v-565h292v-150h-467zM100 761l81 150h171l-118 -150h-134z" />
    <glyph glyph-name="lacute" unicode="&#x13a;" horiz-adv-x="323" 
d="M57 190v525h173v-502c0 -49 9 -66 48 -66c11 0 21 1 21 1v-150s-24 -3 -52 -3c-92 0 -190 22 -190 195zM72 761l81 150h171l-118 -150h-134z" />
    <glyph glyph-name="Lcommaaccent" unicode="&#x13b;" horiz-adv-x="563" 
d="M84 0v715h175v-565h292v-150h-467zM251 -49h136c5 -21 7 -39 7 -58c0 -35 -9 -65 -28 -103h-123c12 35 20 63 20 93c0 19 -3 42 -12 68z" />
    <glyph glyph-name="lcommaaccent" unicode="&#x13c;" horiz-adv-x="323" 
d="M57 190v525h173v-502c0 -49 9 -66 48 -66c11 0 21 1 21 1v-150s-24 -3 -52 -3c-92 0 -190 22 -190 195zM113 -49h136c5 -21 7 -39 7 -58c0 -35 -9 -65 -28 -103h-123c12 35 20 63 20 93c0 19 -3 42 -12 68z" />
    <glyph glyph-name="Lcaron" unicode="&#x13d;" horiz-adv-x="563" 
d="M84 0v715h175v-565h292v-150h-467zM329 715h136c5 -21 7 -39 7 -58c0 -35 -9 -65 -28 -103h-123c12 35 20 63 20 93c0 19 -3 42 -12 68z" />
    <glyph glyph-name="lcaron" unicode="&#x13e;" horiz-adv-x="353" 
d="M57 190v525h173v-502c0 -49 9 -66 48 -66c11 0 21 1 21 1v-150s-24 -3 -52 -3c-92 0 -190 22 -190 195zM277 715h136c5 -21 7 -39 7 -58c0 -35 -9 -65 -28 -103h-123c12 35 20 63 20 93c0 19 -3 42 -12 68z" />
    <glyph glyph-name="Ldot" unicode="&#x13f;" horiz-adv-x="563" 
d="M84 0v715h175v-565h292v-150h-467zM352 315v164h158v-164h-158z" />
    <glyph glyph-name="ldot" unicode="&#x140;" horiz-adv-x="461" 
d="M57 190v525h173v-502c0 -49 9 -66 48 -66c11 0 21 1 21 1v-150s-24 -3 -52 -3c-92 0 -190 22 -190 195zM312 315v164h158v-164h-158z" />
    <glyph glyph-name="Lslash" unicode="&#x141;" horiz-adv-x="589" 
d="M58 175v166l52 30v344h175v-244l101 58v-166l-101 -58v-155h292v-150h-467v205z" />
    <glyph glyph-name="lslash" unicode="&#x142;" horiz-adv-x="373" 
d="M40 195v166l50 29v325h173v-226l69 40v-166l-69 -40v-110c0 -49 9 -66 48 -66c11 0 21 1 21 1v-150s-24 -3 -52 -3c-92 0 -190 22 -190 195v34z" />
    <glyph glyph-name="Nacute" unicode="&#x143;" horiz-adv-x="772" 
d="M84 0v715h177l198 -334c28 -47 60 -122 60 -122h2s-8 77 -8 122v334h175v-715h-176l-199 333c-28 47 -60 122 -60 122h-2s8 -77 8 -122v-333h-175zM314 761l81 150h171l-118 -150h-134z" />
    <glyph glyph-name="nacute" unicode="&#x144;" horiz-adv-x="636" 
d="M64 0v515h166v-45c0 -17 -2 -32 -2 -32h2c24 40 73 89 164 89c104 0 185 -48 185 -193v-334h-173v302c0 48 -19 68 -57 68c-54 0 -87 -30 -102 -74c-7 -20 -10 -43 -10 -68v-228h-173zM253 565l81 150h171l-118 -150h-134z" />
    <glyph glyph-name="Ncommaaccent" unicode="&#x145;" horiz-adv-x="772" 
d="M84 0v715h177l198 -334c28 -47 60 -122 60 -122h2s-8 77 -8 122v334h175v-715h-176l-199 333c-28 47 -60 122 -60 122h-2s8 -77 8 -122v-333h-175zM315 -49h136c5 -21 7 -39 7 -58c0 -35 -9 -65 -28 -103h-123c12 35 20 63 20 93c0 19 -3 42 -12 68z" />
    <glyph glyph-name="ncommaaccent" unicode="&#x146;" horiz-adv-x="636" 
d="M64 0v515h166v-45c0 -17 -2 -32 -2 -32h2c24 40 73 89 164 89c104 0 185 -48 185 -193v-334h-173v302c0 48 -19 68 -57 68c-54 0 -87 -30 -102 -74c-7 -20 -10 -43 -10 -68v-228h-173zM247 -49h136c5 -21 7 -39 7 -58c0 -35 -9 -65 -28 -103h-123c12 35 20 63 20 93
c0 19 -3 42 -12 68z" />
    <glyph glyph-name="Ncaron" unicode="&#x147;" horiz-adv-x="772" 
d="M84 0v715h177l198 -334c28 -47 60 -122 60 -122h2s-8 77 -8 122v334h175v-715h-176l-199 333c-28 47 -60 122 -60 122h-2s8 -77 8 -122v-333h-175zM302 761l-99 150h135l47 -82h2l47 82h135l-99 -150h-168z" />
    <glyph glyph-name="ncaron" unicode="&#x148;" horiz-adv-x="636" 
d="M64 0v515h166v-45c0 -17 -2 -32 -2 -32h2c24 40 73 89 164 89c104 0 185 -48 185 -193v-334h-173v302c0 48 -19 68 -57 68c-54 0 -87 -30 -102 -74c-7 -20 -10 -43 -10 -68v-228h-173zM241 565l-99 150h135l47 -82h2l47 82h135l-99 -150h-168z" />
    <glyph glyph-name="napostrophe" unicode="&#x149;" horiz-adv-x="636" 
d="M64 0v515h166v-45c0 -17 -2 -32 -2 -32h2c24 40 73 89 164 89c104 0 185 -48 185 -193v-334h-173v302c0 48 -19 68 -57 68c-54 0 -87 -30 -102 -74c-7 -20 -10 -43 -10 -68v-228h-173zM-30 715h136c5 -21 7 -39 7 -58c0 -35 -9 -65 -28 -103h-123c12 35 20 63 20 93
c0 19 -3 42 -12 68z" />
    <glyph glyph-name="Eng" unicode="&#x14a;" horiz-adv-x="772" 
d="M84 0v715h177l198 -334c28 -47 60 -122 60 -122h2s-8 77 -8 122v334h175v-648c0 -227 -163 -272 -295 -272v158c28 0 98 19 113 57l-193 323c-28 47 -60 122 -60 122h-2s8 -77 8 -122v-333h-175z" />
    <glyph glyph-name="eng" unicode="&#x14b;" horiz-adv-x="636" 
d="M64 0v515h166v-65c0 -5 -1 -12 -1 -12h2c24 40 72 89 163 89c104 0 185 -48 185 -193v-347c0 -173 -162 -195 -242 -195c-28 0 -46 3 -46 3v144s9 -1 22 -1c34 0 93 8 93 66v298c0 48 -19 68 -57 68c-54 0 -87 -30 -102 -74c-7 -20 -10 -43 -10 -68v-228h-173z" />
    <glyph glyph-name="Omacron" unicode="&#x14c;" horiz-adv-x="818" 
d="M35 362c0 205 158 365 374 365s374 -160 374 -365c0 -210 -158 -374 -374 -374s-374 164 -374 374zM216 362c0 -122 86 -214 193 -214s193 92 193 214c0 117 -86 205 -193 205s-193 -88 -193 -205zM272 782v112h275v-112h-275z" />
    <glyph glyph-name="omacron" unicode="&#x14d;" horiz-adv-x="636" 
d="M26 256c0 162 130 271 291 271c163 0 293 -109 293 -271c0 -161 -130 -268 -292 -268s-292 107 -292 268zM201 256c0 -77 54 -124 117 -124s117 47 117 124c0 78 -54 127 -117 127s-117 -49 -117 -127zM181 586v112h275v-112h-275z" />
    <glyph glyph-name="Obreve" unicode="&#x14e;" horiz-adv-x="818" 
d="M35 362c0 205 158 365 374 365s374 -160 374 -365c0 -210 -158 -374 -374 -374s-374 164 -374 374zM216 362c0 -122 86 -214 193 -214s193 92 193 214c0 117 -86 205 -193 205s-193 -88 -193 -205zM409 756c-93 0 -174 52 -174 145v10h117v-11c0 -40 30 -58 57 -58
s57 18 57 58v11h117v-10c0 -93 -81 -145 -174 -145z" />
    <glyph glyph-name="obreve" unicode="&#x14f;" horiz-adv-x="636" 
d="M26 256c0 162 130 271 291 271c163 0 293 -109 293 -271c0 -161 -130 -268 -292 -268s-292 107 -292 268zM201 256c0 -77 54 -124 117 -124s117 47 117 124c0 78 -54 127 -117 127s-117 -49 -117 -127zM318 560c-93 0 -174 52 -174 145v10h117v-11c0 -40 30 -58 57 -58
s57 18 57 58v11h117v-10c0 -93 -81 -145 -174 -145z" />
    <glyph glyph-name="Ohungarumlaut" unicode="&#x150;" horiz-adv-x="818" 
d="M35 362c0 205 158 365 374 365s374 -160 374 -365c0 -210 -158 -374 -374 -374s-374 164 -374 374zM216 362c0 -122 86 -214 193 -214s193 92 193 214c0 117 -86 205 -193 205s-193 -88 -193 -205zM435 761l81 150h163l-118 -150h-126zM227 761l76 150h139l-79 -150h-136
z" />
    <glyph glyph-name="ohungarumlaut" unicode="&#x151;" horiz-adv-x="636" 
d="M26 256c0 162 130 271 291 271c163 0 293 -109 293 -271c0 -161 -130 -268 -292 -268s-292 107 -292 268zM201 256c0 -77 54 -124 117 -124s117 47 117 124c0 78 -54 127 -117 127s-117 -49 -117 -127zM344 565l81 150h163l-118 -150h-126zM136 565l76 150h139l-79 -150
h-136z" />
    <glyph glyph-name="OE" unicode="&#x152;" horiz-adv-x="992" 
d="M32 359c0 205 173 364 384 364c68 0 88 -8 132 -8h388v-150h-273v-130h218v-150h-218v-135h288v-150h-403c-44 0 -64 -8 -132 -8c-211 0 -384 162 -384 367zM213 359c0 -120 89 -218 203 -218c44 0 72 7 72 7v419s-28 7 -72 7c-114 0 -203 -96 -203 -215z" />
    <glyph glyph-name="oe" unicode="&#x153;" horiz-adv-x="970" 
d="M26 256c0 162 127 271 285 271c98 0 152 -34 199 -80h2c41 45 90 80 190 80c152 0 238 -106 238 -249c0 -17 -4 -54 -4 -54h-324c13 -60 64 -92 119 -92c74 0 142 52 142 52l64 -121s-83 -75 -220 -75c-107 0 -159 39 -201 85h-2c-47 -48 -102 -85 -202 -85
c-159 0 -286 107 -286 268zM615 323h151c-1 36 -26 74 -66 74c-52 0 -76 -36 -85 -74zM200 256c0 -77 54 -124 117 -124s117 47 117 124c0 78 -54 127 -117 127s-117 -49 -117 -127z" />
    <glyph glyph-name="Racute" unicode="&#x154;" horiz-adv-x="685" 
d="M84 0v715h249c73 0 108 -5 139 -17c81 -31 132 -104 132 -208c0 -76 -36 -159 -107 -195v-2s10 -13 27 -43l139 -250h-195l-127 241h-82v-241h-175zM259 391h76c56 0 91 31 91 88c0 54 -20 86 -108 86h-59v-174zM254 761l81 150h171l-118 -150h-134z" />
    <glyph glyph-name="racute" unicode="&#x155;" horiz-adv-x="430" 
d="M64 0v515h166v-87c0 -17 -2 -32 -2 -32h2c22 70 87 128 164 128c10 0 20 -2 20 -2v-170s-14 3 -35 3c-41 0 -108 -13 -133 -90c-6 -19 -9 -42 -9 -70v-195h-173zM184 564l81 150h171l-118 -150h-134z" />
    <glyph glyph-name="Rcommaaccent" unicode="&#x156;" horiz-adv-x="685" 
d="M84 0v715h249c73 0 108 -5 139 -17c81 -31 132 -104 132 -208c0 -76 -36 -159 -107 -195v-2s10 -13 27 -43l139 -250h-195l-127 241h-82v-241h-175zM259 391h76c56 0 91 31 91 88c0 54 -20 86 -108 86h-59v-174zM276 -49h136c5 -21 7 -39 7 -58c0 -35 -9 -65 -28 -103
h-123c12 35 20 63 20 93c0 19 -3 42 -12 68z" />
    <glyph glyph-name="rcommaaccent" unicode="&#x157;" horiz-adv-x="430" 
d="M64 0v515h166v-87c0 -17 -2 -32 -2 -32h2c22 70 87 128 164 128c10 0 20 -2 20 -2v-170s-14 3 -35 3c-41 0 -108 -13 -133 -90c-6 -19 -9 -42 -9 -70v-195h-173zM80 -49h136c5 -21 7 -39 7 -58c0 -35 -9 -65 -28 -103h-123c12 35 20 63 20 93c0 19 -3 42 -12 68z" />
    <glyph glyph-name="Rcaron" unicode="&#x158;" horiz-adv-x="685" 
d="M84 0v715h249c73 0 108 -5 139 -17c81 -31 132 -104 132 -208c0 -76 -36 -159 -107 -195v-2s10 -13 27 -43l139 -250h-195l-127 241h-82v-241h-175zM259 391h76c56 0 91 31 91 88c0 54 -20 86 -108 86h-59v-174zM242 761l-99 150h135l47 -82h2l47 82h135l-99 -150h-168z
" />
    <glyph glyph-name="rcaron" unicode="&#x159;" horiz-adv-x="430" 
d="M64 0v515h166v-87c0 -17 -2 -32 -2 -32h2c22 70 87 128 164 128c10 0 20 -2 20 -2v-170s-14 3 -35 3c-41 0 -108 -13 -133 -90c-6 -19 -9 -42 -9 -70v-195h-173zM172 564l-99 150h135l47 -82h2l47 82h135l-99 -150h-168z" />
    <glyph glyph-name="Sacute" unicode="&#x15a;" horiz-adv-x="580" 
d="M31 90l92 133s81 -74 171 -74c36 0 75 14 75 57c0 85 -322 82 -322 302c0 132 111 219 253 219c154 0 230 -81 230 -81l-74 -143s-72 63 -158 63c-36 0 -76 -16 -76 -56c0 -90 322 -74 322 -300c0 -119 -91 -222 -252 -222c-168 0 -261 102 -261 102zM221 761l81 150h171
l-118 -150h-134z" />
    <glyph glyph-name="sacute" unicode="&#x15b;" horiz-adv-x="471" 
d="M24 64l74 116s57 -52 131 -52c26 0 51 7 51 24c0 45 -241 50 -241 218c0 97 93 157 212 157c120 0 181 -59 181 -59l-59 -123s-50 42 -122 42c-26 0 -51 -7 -51 -25c0 -39 241 -45 241 -211c0 -88 -78 -163 -211 -163c-129 0 -206 76 -206 76zM162 565l81 150h171
l-118 -150h-134z" />
    <glyph glyph-name="Scircumflex" unicode="&#x15c;" horiz-adv-x="580" 
d="M31 90l92 133s81 -74 171 -74c36 0 75 14 75 57c0 85 -322 82 -322 302c0 132 111 219 253 219c154 0 230 -81 230 -81l-74 -143s-72 63 -158 63c-36 0 -76 -16 -76 -56c0 -90 322 -74 322 -300c0 -119 -91 -222 -252 -222c-168 0 -261 102 -261 102zM110 761l99 150h168
l99 -150h-135l-47 82h-2l-47 -82h-135z" />
    <glyph glyph-name="scircumflex" unicode="&#x15d;" horiz-adv-x="471" 
d="M24 64l74 116s57 -52 131 -52c26 0 51 7 51 24c0 45 -241 50 -241 218c0 97 93 157 212 157c120 0 181 -59 181 -59l-59 -123s-50 42 -122 42c-26 0 -51 -7 -51 -25c0 -39 241 -45 241 -211c0 -88 -78 -163 -211 -163c-129 0 -206 76 -206 76zM52 565l99 150h168l99 -150
h-135l-47 82h-2l-47 -82h-135z" />
    <glyph glyph-name="Scedilla" unicode="&#x15e;" horiz-adv-x="580" 
d="M31 90l92 133s81 -74 171 -74c36 0 75 14 75 57c0 85 -322 82 -322 302c0 132 111 219 253 219c154 0 230 -81 230 -81l-74 -143s-72 63 -158 63c-36 0 -76 -16 -76 -56c0 -90 322 -74 322 -300c0 -109 -76 -204 -211 -219l-6 -27c40 -4 75 -27 75 -80
c0 -72 -60 -94 -117 -94c-38 0 -71 9 -71 9v87s23 -10 45 -10s38 7 38 23c0 17 -21 21 -41 21c-13 0 -26 -2 -26 -2l22 72c-143 14 -221 100 -221 100z" />
    <glyph glyph-name="scedilla" unicode="&#x15f;" horiz-adv-x="471" 
d="M24 64l74 116s57 -52 131 -52c26 0 51 7 51 24c0 45 -241 50 -241 218c0 97 93 157 212 157c120 0 181 -59 181 -59l-59 -123s-50 42 -122 42c-26 0 -51 -7 -51 -25c0 -39 241 -45 241 -211c0 -80 -64 -149 -175 -161l-6 -26c40 -4 75 -27 75 -80c0 -72 -60 -94 -117 -94
c-38 0 -71 9 -71 9v87s23 -10 45 -10s38 7 38 23c0 17 -21 21 -41 21c-13 0 -26 -2 -26 -2l23 73c-102 14 -162 73 -162 73z" />
    <glyph glyph-name="Scaron" unicode="&#x160;" horiz-adv-x="580" 
d="M31 90l92 133s81 -74 171 -74c36 0 75 14 75 57c0 85 -322 82 -322 302c0 132 111 219 253 219c154 0 230 -81 230 -81l-74 -143s-72 63 -158 63c-36 0 -76 -16 -76 -56c0 -90 322 -74 322 -300c0 -119 -91 -222 -252 -222c-168 0 -261 102 -261 102zM209 761l-99 150
h135l47 -82h2l47 82h135l-99 -150h-168z" />
    <glyph glyph-name="scaron" unicode="&#x161;" horiz-adv-x="471" 
d="M24 64l74 116s57 -52 131 -52c26 0 51 7 51 24c0 45 -241 50 -241 218c0 97 93 157 212 157c120 0 181 -59 181 -59l-59 -123s-50 42 -122 42c-26 0 -51 -7 -51 -25c0 -39 241 -45 241 -211c0 -88 -78 -163 -211 -163c-129 0 -206 76 -206 76zM151 565l-99 150h135
l47 -82h2l47 82h135l-99 -150h-168z" />
    <glyph glyph-name="Tcommaaccent" unicode="&#x162;" horiz-adv-x="617" 
d="M221 0v565h-217v150h609v-150h-217v-565h-47l-9 -36c40 -4 75 -27 75 -80c0 -72 -60 -94 -117 -94c-38 0 -71 9 -71 9v87s23 -10 45 -10s38 7 38 23c0 17 -21 21 -41 21c-13 0 -26 -2 -26 -2l26 82h-48z" />
    <glyph glyph-name="tcommaaccent" unicode="&#x163;" horiz-adv-x="416" 
d="M91 190v181h-66v135h71v148h168v-148h108v-135h-108v-158c0 -58 59 -66 92 -66c14 0 23 1 23 1v-150s-19 -3 -47 -3c-18 0 -39 1 -62 5l-8 -36c40 -4 75 -27 75 -80c0 -72 -60 -94 -117 -94c-38 0 -71 9 -71 9v87s23 -10 45 -10s38 7 38 23c0 17 -21 21 -41 21
c-13 0 -26 -2 -26 -2l32 101c-58 25 -106 75 -106 171z" />
    <glyph glyph-name="Tcaron" unicode="&#x164;" horiz-adv-x="617" 
d="M221 0v565h-217v150h609v-150h-217v-565h-175zM224 761l-99 150h135l47 -82h2l47 82h135l-99 -150h-168z" />
    <glyph glyph-name="tcaron" unicode="&#x165;" horiz-adv-x="415" 
d="M90 190v181h-66v135h71v148h168v-148h108v-135h-108v-158c0 -58 59 -66 92 -66c14 0 23 1 23 1v-150s-19 -3 -47 -3c-82 0 -241 22 -241 195zM305 715h136c5 -20 7 -37 7 -54c0 -33 -9 -61 -28 -97h-123c12 33 20 59 20 87c0 18 -3 40 -12 64z" />
    <glyph glyph-name="Tbar" unicode="&#x166;" horiz-adv-x="640" 
d="M90 272v127h142v166h-217v150h609v-150h-217v-166h148v-127h-148v-272h-175v272h-142z" />
    <glyph glyph-name="tbar" unicode="&#x167;" horiz-adv-x="438" 
d="M30 209v107h77v55h-66v135h71v148h168v-148h108v-135h-108v-55h97v-107h-97v-5c0 -48 59 -57 92 -57c14 0 23 1 23 1v-150s-19 -3 -47 -3c-82 0 -241 22 -241 195v19h-77z" />
    <glyph glyph-name="Utilde" unicode="&#x168;" horiz-adv-x="746" 
d="M74 263v452h175v-452c0 -75 49 -115 124 -115s124 40 124 115v452h175v-452c0 -161 -118 -275 -298 -275c-182 0 -300 114 -300 275zM172 761c0 101 41 153 128 153c67 0 88 -60 126 -60c24 0 37 19 37 57h112c0 -101 -41 -153 -128 -153c-67 0 -88 60 -126 60
c-24 0 -37 -19 -37 -57h-112z" />
    <glyph glyph-name="utilde" unicode="&#x169;" horiz-adv-x="631" 
d="M57 181v334h173v-302c0 -48 19 -68 55 -68c74 0 109 65 109 142v228h173v-515h-166v45c0 17 2 32 2 32h-2c-28 -55 -92 -89 -161 -89c-102 0 -183 48 -183 193zM111 565c0 101 41 153 128 153c67 0 88 -60 126 -60c24 0 37 19 37 57h112c0 -101 -41 -153 -128 -153
c-67 0 -88 60 -126 60c-24 0 -37 -19 -37 -57h-112z" />
    <glyph glyph-name="Umacron" unicode="&#x16a;" horiz-adv-x="746" 
d="M74 263v452h175v-452c0 -75 49 -115 124 -115s124 40 124 115v452h175v-452c0 -161 -118 -275 -298 -275c-182 0 -300 114 -300 275zM236 782v112h275v-112h-275z" />
    <glyph glyph-name="umacron" unicode="&#x16b;" horiz-adv-x="631" 
d="M57 181v334h173v-302c0 -48 19 -68 55 -68c74 0 109 65 109 142v228h173v-515h-166v45c0 17 2 32 2 32h-2c-28 -55 -92 -89 -161 -89c-102 0 -183 48 -183 193zM175 586v112h275v-112h-275z" />
    <glyph glyph-name="Ubreve" unicode="&#x16c;" horiz-adv-x="746" 
d="M74 263v452h175v-452c0 -75 49 -115 124 -115s124 40 124 115v452h175v-452c0 -161 -118 -275 -298 -275c-182 0 -300 114 -300 275zM373 756c-93 0 -174 52 -174 145v10h117v-11c0 -40 30 -58 57 -58s57 18 57 58v11h117v-10c0 -93 -81 -145 -174 -145z" />
    <glyph glyph-name="ubreve" unicode="&#x16d;" horiz-adv-x="631" 
d="M57 181v334h173v-302c0 -48 19 -68 55 -68c74 0 109 65 109 142v228h173v-515h-166v45c0 17 2 32 2 32h-2c-28 -55 -92 -89 -161 -89c-102 0 -183 48 -183 193zM312 560c-93 0 -174 52 -174 145v10h117v-11c0 -40 30 -58 57 -58s57 18 57 58v11h117v-10
c0 -93 -81 -145 -174 -145z" />
    <glyph glyph-name="Uring" unicode="&#x16e;" horiz-adv-x="746" 
d="M74 263v452h175v-452c0 -75 49 -115 124 -115s124 40 124 115v452h175v-452c0 -161 -118 -275 -298 -275c-182 0 -300 114 -300 275zM373 747c-53 0 -109 26 -109 85s56 86 109 86s110 -27 110 -86s-57 -85 -110 -85zM373 797c21 0 35 14 35 35c0 22 -14 36 -35 36
c-20 0 -34 -14 -34 -36c0 -21 13 -35 34 -35z" />
    <glyph glyph-name="uring" unicode="&#x16f;" horiz-adv-x="631" 
d="M57 181v334h173v-302c0 -48 19 -68 55 -68c74 0 109 65 109 142v228h173v-515h-166v45c0 17 2 32 2 32h-2c-28 -55 -92 -89 -161 -89c-102 0 -183 48 -183 193zM312 551c-53 0 -109 26 -109 85s56 86 109 86s110 -27 110 -86s-57 -85 -110 -85zM312 601c21 0 35 14 35 35
c0 22 -14 36 -35 36c-20 0 -34 -14 -34 -36c0 -21 13 -35 34 -35z" />
    <glyph glyph-name="Uhungarumlaut" unicode="&#x170;" horiz-adv-x="746" 
d="M74 263v452h175v-452c0 -75 49 -115 124 -115s124 40 124 115v452h175v-452c0 -161 -118 -275 -298 -275c-182 0 -300 114 -300 275zM399 761l81 150h163l-118 -150h-126zM191 761l76 150h139l-79 -150h-136z" />
    <glyph glyph-name="uhungarumlaut" unicode="&#x171;" horiz-adv-x="631" 
d="M57 181v334h173v-302c0 -48 19 -68 55 -68c74 0 109 65 109 142v228h173v-515h-166v45c0 17 2 32 2 32h-2c-28 -55 -92 -89 -161 -89c-102 0 -183 48 -183 193zM338 565l81 150h163l-118 -150h-126zM130 565l76 150h139l-79 -150h-136z" />
    <glyph glyph-name="Uogonek" unicode="&#x172;" horiz-adv-x="746" 
d="M317 -111c0 40 24 74 51 97v2c-179 3 -294 115 -294 275v452h175v-452c0 -75 49 -115 124 -115s124 40 124 115v452h175v-452c0 -133 -73 -191 -133 -237c-45 -34 -85 -60 -85 -87c0 -22 38 -25 38 -25l-42 -124s-133 13 -133 99z" />
    <glyph glyph-name="uogonek" unicode="&#x173;" horiz-adv-x="631" 
d="M387 -111c0 51 42 89 66 109v2h-52v45c0 17 2 32 2 32h-2c-28 -55 -92 -89 -161 -89c-102 0 -183 48 -183 193v334h173v-302c0 -48 19 -68 55 -68c74 0 109 65 109 142v228h173v-515c-17 -16 -43 -43 -43 -61c0 -22 38 -25 38 -25l-42 -124s-133 13 -133 99z" />
    <glyph glyph-name="Wcircumflex" unicode="&#x174;" horiz-adv-x="998" 
d="M195 0l-174 715h184l90 -447c9 -44 9 -75 9 -75h2s1 31 12 75l110 447h141l107 -447c11 -44 12 -75 12 -75h2s0 31 9 75l98 447h181l-181 -715h-195l-90 361c-11 46 -14 84 -14 84h-2s-3 -38 -14 -84l-90 -361h-197zM313 761l99 150h168l99 -150h-135l-47 82h-2l-47 -82
h-135z" />
    <glyph glyph-name="wcircumflex" unicode="&#x175;" horiz-adv-x="840" 
d="M157 0l-144 515h182l64 -304c6 -28 6 -54 6 -54h2s2 26 9 54l71 304h148l71 -304c7 -28 8 -54 8 -54h2s1 26 7 54l64 304h180l-144 -515h-193l-58 238c-7 28 -10 55 -10 55h-2s-3 -27 -10 -55l-58 -238h-195zM238 565l99 150h168l99 -150h-135l-47 82h-2l-47 -82h-135z
" />
    <glyph glyph-name="Ycircumflex" unicode="&#x176;" horiz-adv-x="639" 
d="M232 0v293l-236 422h199l81 -172c23 -49 43 -103 43 -103h2s20 54 43 103l80 172h199l-236 -422v-293h-175zM137 761l99 150h168l99 -150h-135l-47 82h-2l-47 -82h-135z" />
    <glyph glyph-name="ycircumflex" unicode="&#x177;" horiz-adv-x="546" 
d="M1 -174l55 127s28 -19 53 -19c28 0 65 8 83 52l10 24l-219 505h196l76 -237c9 -28 19 -80 19 -80h2s10 49 17 77l65 240h189l-211 -570c-43 -115 -133 -155 -215 -155c-68 0 -120 36 -120 36zM92 564l99 150h168l99 -150h-135l-47 82h-2l-47 -82h-135z" />
    <glyph glyph-name="Ydieresis" unicode="&#x178;" horiz-adv-x="639" 
d="M232 0v293l-236 422h199l81 -172c23 -49 43 -103 43 -103h2s20 54 43 103l80 172h199l-236 -422v-293h-175zM362 771v140h126v-140h-126zM153 771v140h126v-140h-126z" />
    <glyph glyph-name="Zacute" unicode="&#x179;" horiz-adv-x="638" 
d="M38 0v110l276 391c31 44 55 65 55 65v2s-23 -3 -55 -3h-263v150h540v-108l-277 -393c-31 -44 -55 -65 -55 -65v-2s23 3 55 3h282v-150h-558zM257 761l81 150h171l-118 -150h-134z" />
    <glyph glyph-name="zacute" unicode="&#x17a;" horiz-adv-x="543" 
d="M34 0v86l189 237c26 32 45 47 45 47v2s-13 -2 -45 -2h-181v145h460v-87l-188 -237c-25 -31 -46 -47 -46 -47v-2s13 3 46 3h193v-145h-473zM194 565l81 150h171l-118 -150h-134z" />
    <glyph glyph-name="Zdotaccent" unicode="&#x17b;" horiz-adv-x="638" 
d="M38 0v110l276 391c31 44 55 65 55 65v2s-23 -3 -55 -3h-263v150h540v-108l-277 -393c-31 -44 -55 -65 -55 -65v-2s23 3 55 3h282v-150h-558zM258 779v132h143v-132h-143z" />
    <glyph glyph-name="zdotaccent" unicode="&#x17c;" horiz-adv-x="543" 
d="M34 0v86l189 237c26 32 45 47 45 47v2s-13 -2 -45 -2h-181v145h460v-87l-188 -237c-25 -31 -46 -47 -46 -47v-2s13 3 46 3h193v-145h-473zM195 583v132h143v-132h-143z" />
    <glyph glyph-name="Zcaron" unicode="&#x17d;" horiz-adv-x="638" 
d="M38 0v110l276 391c31 44 55 65 55 65v2s-23 -3 -55 -3h-263v150h540v-108l-277 -393c-31 -44 -55 -65 -55 -65v-2s23 3 55 3h282v-150h-558zM245 761l-99 150h135l47 -82h2l47 82h135l-99 -150h-168z" />
    <glyph glyph-name="zcaron" unicode="&#x17e;" horiz-adv-x="543" 
d="M34 0v86l189 237c26 32 45 47 45 47v2s-13 -2 -45 -2h-181v145h460v-87l-188 -237c-25 -31 -46 -47 -46 -47v-2s13 3 46 3h193v-145h-473zM182 565l-99 150h135l47 -82h2l47 82h135l-99 -150h-168z" />
    <glyph glyph-name="longs" unicode="&#x17f;" horiz-adv-x="333" 
d="M96 0v371h-63v135h63v21c0 169 153 192 236 192c31 0 52 -3 52 -3v-146s-12 2 -28 2c-34 0 -87 -9 -87 -53v-519h-173z" />
    <glyph glyph-name="florin" unicode="&#x192;" horiz-adv-x="593" 
d="M23 28c0 0 54 -7 70 -7c33 0 87 9 92 64l19 225h-62v135h74l9 90c16 169 167 192 252 192c31 0 88 -8 88 -8v-146s-60 7 -76 7c-34 0 -88 -9 -93 -64l-7 -71h95v-135h-107l-21 -244c-15 -169 -168 -192 -251 -192c-31 0 -82 8 -82 8v146z" />
    <glyph glyph-name="Scommaaccent" unicode="&#x218;" horiz-adv-x="580" 
d="M31 90l92 133s81 -74 171 -74c36 0 75 14 75 57c0 85 -322 82 -322 302c0 132 111 219 253 219c154 0 230 -81 230 -81l-74 -143s-72 63 -158 63c-36 0 -76 -16 -76 -56c0 -90 322 -74 322 -300c0 -119 -91 -222 -252 -222c-168 0 -261 102 -261 102zM213 -49h136
c5 -21 7 -39 7 -58c0 -35 -9 -65 -28 -103h-123c12 35 20 63 20 93c0 19 -3 42 -12 68z" />
    <glyph glyph-name="scommaaccent" unicode="&#x219;" horiz-adv-x="471" 
d="M24 64l74 116s57 -52 131 -52c26 0 51 7 51 24c0 45 -241 50 -241 218c0 97 93 157 212 157c120 0 181 -59 181 -59l-59 -123s-50 42 -122 42c-26 0 -51 -7 -51 -25c0 -39 241 -45 241 -211c0 -88 -78 -163 -211 -163c-129 0 -206 76 -206 76zM159 -49h136
c5 -21 7 -39 7 -58c0 -35 -9 -65 -28 -103h-123c12 35 20 63 20 93c0 19 -3 42 -12 68z" />
    <glyph glyph-name="uni021A" unicode="&#x21a;" horiz-adv-x="617" 
d="M221 0v565h-217v150h609v-150h-217v-565h-175zM231 -49h136c5 -21 7 -39 7 -58c0 -35 -9 -65 -28 -103h-123c12 35 20 63 20 93c0 19 -3 42 -12 68z" />
    <glyph glyph-name="uni021B" unicode="&#x21b;" horiz-adv-x="415" 
d="M90 190v181h-66v135h71v148h168v-148h108v-135h-108v-158c0 -58 59 -66 92 -66c14 0 23 1 23 1v-150s-19 -3 -47 -3c-82 0 -241 22 -241 195zM162 -49h136c5 -21 7 -39 7 -58c0 -35 -9 -65 -28 -103h-123c12 35 20 63 20 93c0 19 -3 42 -12 68z" />
    <glyph glyph-name="circumflex" unicode="&#x2c6;" horiz-adv-x="486" 
d="M60 761l99 150h168l99 -150h-135l-47 82h-2l-47 -82h-135z" />
    <glyph glyph-name="caron" unicode="&#x2c7;" horiz-adv-x="486" 
d="M159 761l-99 150h135l47 -82h2l47 82h135l-99 -150h-168z" />
    <glyph glyph-name="breve" unicode="&#x2d8;" horiz-adv-x="484" 
d="M242 756c-93 0 -174 52 -174 145v10h117v-11c0 -40 30 -58 57 -58s57 18 57 58v11h117v-10c0 -93 -81 -145 -174 -145z" />
    <glyph glyph-name="dotaccent" unicode="&#x2d9;" horiz-adv-x="485" 
d="M171 779v132h143v-132h-143z" />
    <glyph glyph-name="ring" unicode="&#x2da;" horiz-adv-x="485" 
d="M242 747c-53 0 -109 26 -109 85s56 86 109 86s110 -27 110 -86s-57 -85 -110 -85zM242 797c21 0 35 14 35 35c0 22 -14 36 -35 36c-20 0 -34 -14 -34 -36c0 -21 13 -35 34 -35z" />
    <glyph glyph-name="ogonek" unicode="&#x2db;" horiz-adv-x="486" 
d="M146 -111c0 80 104 139 104 139l90 -14s-57 -49 -57 -75c0 -22 38 -25 38 -25l-42 -124s-133 13 -133 99z" />
    <glyph glyph-name="tilde" unicode="&#x2dc;" horiz-adv-x="485" 
d="M41 761c0 101 41 153 128 153c67 0 88 -60 126 -60c24 0 37 19 37 57h112c0 -101 -41 -153 -128 -153c-67 0 -88 60 -126 60c-24 0 -37 -19 -37 -57h-112z" />
    <glyph glyph-name="hungarumlaut" unicode="&#x2dd;" horiz-adv-x="485" 
d="M225 761l81 150h163l-118 -150h-126zM17 761l76 150h139l-79 -150h-136z" />
    <glyph glyph-name="uni1E9E" unicode="&#x1e9e;" horiz-adv-x="717" 
d="M75 0v480c0 141 96 235 241 235h326v-120l-92 -148c-9 -15 -20 -29 -20 -29v-2l9 -2c89 -20 133 -115 133 -196c0 -124 -104 -218 -231 -218h-118v150h105c44 0 64 34 64 68c0 33 -19 66 -64 66h-80v120l53 97c26 48 45 65 45 65v2s-9 -3 -45 -3h-84
c-37 0 -63 -35 -63 -81v-484h-179z" />
    <glyph glyph-name="endash" unicode="&#x2013;" horiz-adv-x="730" 
d="M67 222v130h596v-130h-596z" />
    <glyph glyph-name="emdash" unicode="&#x2014;" horiz-adv-x="930" 
d="M67 222v130h796v-130h-796z" />
    <glyph glyph-name="quoteleft" unicode="&#x2018;" horiz-adv-x="259" 
d="M30 475l89 255h117l-54 -255h-152z" />
    <glyph glyph-name="quoteright" unicode="&#x2019;" horiz-adv-x="252" 
d="M35 475l54 255h152l-89 -255h-117z" />
    <glyph glyph-name="quotesinglbase" unicode="&#x201a;" horiz-adv-x="266" 
d="M21 -89l54 255h147l-89 -255h-112z" />
    <glyph glyph-name="quotedblleft" unicode="&#x201c;" horiz-adv-x="458" 
d="M228 475l89 255h118l-54 -255h-153zM30 475l89 255h118l-54 -255h-153z" />
    <glyph glyph-name="quotedblright" unicode="&#x201d;" horiz-adv-x="451" 
d="M233 475l54 255h153l-89 -255h-118zM35 475l54 255h153l-89 -255h-118z" />
    <glyph glyph-name="quotedblbase" unicode="&#x201e;" horiz-adv-x="458" 
d="M213 -89l54 255h147l-89 -255h-112zM21 -89l54 255h147l-89 -255h-112z" />
    <glyph glyph-name="dagger" unicode="&#x2020;" horiz-adv-x="490" 
d="M162 -50v435h-130v130h130v200h165v-200h131v-130h-131v-435h-165z" />
    <glyph glyph-name="daggerdbl" unicode="&#x2021;" horiz-adv-x="522" 
d="M48 150v130h130v105h-130v130h130v200h165v-200h131v-130h-131v-105h131v-130h-131v-200h-165v200h-130z" />
    <glyph glyph-name="bullet" unicode="&#x2022;" horiz-adv-x="466" 
d="M233 105c-103 0 -186 83 -186 186s83 186 186 186s186 -83 186 -186s-83 -186 -186 -186z" />
    <glyph glyph-name="ellipsis" unicode="&#x2026;" horiz-adv-x="922" 
d="M706 0v164h158v-164h-158zM382 0v164h158v-164h-158zM58 0v164h158v-164h-158z" />
    <glyph glyph-name="perthousand" unicode="&#x2030;" horiz-adv-x="1253" 
d="M210 382c-101 0 -181 76 -181 172c0 94 80 173 181 173c100 0 181 -79 181 -173c0 -96 -81 -172 -181 -172zM69 0l552 715h152l-552 -715h-152zM210 502c30 0 55 23 55 53c0 28 -25 52 -55 52s-55 -24 -55 -52c0 -30 25 -53 55 -53zM858 160c0 94 80 173 181 173
c100 0 181 -79 181 -173c0 -96 -81 -172 -181 -172c-101 0 -181 76 -181 172zM456 160c0 94 80 173 181 173c100 0 181 -79 181 -173c0 -96 -81 -172 -181 -172c-101 0 -181 76 -181 172zM984 161c0 -30 25 -53 55 -53s55 23 55 53c0 28 -25 52 -55 52s-55 -24 -55 -52z
M582 161c0 -30 25 -53 55 -53s55 23 55 53c0 28 -25 52 -55 52s-55 -24 -55 -52z" />
    <glyph glyph-name="guilsinglleft" unicode="&#x2039;" horiz-adv-x="383" 
d="M192 77l-164 205l164 206h158l-164 -206l164 -205h-158z" />
    <glyph glyph-name="guilsinglright" unicode="&#x203a;" horiz-adv-x="383" 
d="M33 77l164 205l-164 206h158l164 -206l-164 -205h-158z" />
    <glyph glyph-name="fraction" unicode="&#x2044;" horiz-adv-x="195" 
d="M-11 0h-119l336 715h119z" />
    <glyph glyph-name="Euro" unicode="&#x20ac;" horiz-adv-x="597" 
d="M27 237v96h56c-2 15 -3 30 -1 48h-55v96h72c46 147 182 250 347 250c60 0 117 -14 117 -14l-43 -158s-39 10 -79 10c-69 0 -124 -32 -154 -88h216l-20 -96h-219c-2 -16 -1 -32 2 -48h207l-20 -96h-155c32 -53 89 -84 151 -84c50 0 95 15 95 15l30 -160s-55 -20 -128 -20
c-172 0 -299 101 -345 249h-74z" />
    <glyph glyph-name="trademark" unicode="&#x2122;" horiz-adv-x="967" 
d="M443 268l35 447h118l73 -175c6 -15 13 -44 13 -44h2s7 29 13 44l73 175h118l33 -447h-127l-10 174c-1 15 1 32 1 32h-2l-51 -125h-98l-51 125h-2s2 -17 1 -32l-12 -174h-127zM158 268v338h-142v109h408v-109h-140v-338h-126z" />
    <glyph glyph-name="minus" unicode="&#x2212;" horiz-adv-x="630" 
d="M42 222v130h546v-130h-546z" />
    <glyph glyph-name="infinity" unicode="&#x221e;" horiz-adv-x="531" 
d="M266 143c-113 0 -206 93 -206 206c0 114 93 205 206 205c114 0 205 -91 205 -205c0 -113 -91 -206 -205 -206z" />
    <glyph glyph-name="approxequal" unicode="&#x2248;" horiz-adv-x="630" 
d="M115 322l-63 99c41 41 100 81 165 81c94 0 127 -70 198 -70c38 0 77 25 102 54l63 -99c-40 -40 -99 -81 -165 -81c-94 0 -127 70 -198 70c-39 0 -76 -26 -102 -54zM115 93l-63 99c41 41 100 81 165 81c94 0 127 -70 198 -70c38 0 77 25 102 54l63 -99
c-40 -40 -99 -81 -165 -81c-94 0 -127 70 -198 70c-39 0 -76 -26 -102 -54z" />
    <glyph glyph-name="notequal" unicode="&#x2260;" horiz-adv-x="630" 
d="M112 47l38 60h-88v130h171l64 100h-235v130h319l69 108l76 -49l-38 -59h80v-130h-163l-64 -100h227v-130h-310l-68 -107z" />
    <glyph glyph-name="lessequal" unicode="&#x2264;" horiz-adv-x="630" 
d="M59 234v107l504 223v-145l-330 -131v-2l330 -130v-145zM62 -70h501v-130h-501v130z" />
    <glyph glyph-name="greaterequal" unicode="&#x2265;" horiz-adv-x="630" 
d="M67 11v145l330 130v2l-330 131v145l504 -223v-107zM68 -70h501v-130h-501v130z" />
    <glyph glyph-name="commaaccent" horiz-adv-x="335" 
d="M105 -49h136c5 -21 7 -39 7 -58c0 -35 -9 -65 -28 -103h-123c12 35 20 63 20 93c0 19 -3 42 -12 68z" />
    <glyph glyph-name="apple" horiz-adv-x="1130" 
d="M168 -5v152l-126 72v278l126 71v151l265 142l134 -71l132 71l265 -142v-151l124 -71v-278l-124 -72v-152l-265 -141l-132 71l-134 -71zM208 30l238 -126l121 66l118 -66l238 126v139l114 64v249l-114 66v136l-238 126l-118 -64l-121 64l-238 -126v-136l-114 -66v-249
l114 -64v-139zM242 64v121l-99 60v225l99 58v123l215 114l110 -59l107 59l214 -114v-123l100 -58v-225l-100 -60v-121l-214 -114l-107 58l-110 -58zM426 91h129v171h176v108h-176v128h85c15 0 16 -7 16 -21v-21h115v102c0 33 -10 48 -47 48h-346v-108h48v-407z" />
    <glyph glyph-name="zero.tnum" horiz-adv-x="600" 
d="M301 -12c-203 0 -269 166 -269 371s66 368 269 368s269 -163 269 -368s-66 -371 -269 -371zM301 148c69 0 89 94 89 211c0 116 -20 208 -89 208s-89 -92 -89 -208c0 -117 20 -211 89 -211z" />
    <glyph glyph-name="one.tnum" horiz-adv-x="600" 
d="M78 0v150h152v298c0 27 1 55 1 55h-2s-9 -20 -28 -38l-43 -39l-101 108l193 181h151v-565h153v-150h-476z" />
    <glyph glyph-name="two.tnum" horiz-adv-x="600" 
d="M60 0c-5 28 -8 53 -8 77c0 264 309 311 309 414c0 50 -40 71 -77 71c-68 0 -106 -76 -106 -76l-130 87s66 154 252 154c117 0 244 -67 244 -219c0 -223 -288 -266 -293 -358h304v-150h-495z" />
    <glyph glyph-name="three.tnum" horiz-adv-x="600" 
d="M42 82l84 135s64 -64 147 -64c65 0 102 32 102 71c0 56 -56 79 -133 79h-50l-37 85l94 113c34 41 62 67 62 67v2s-23 -5 -68 -5h-171v150h451v-109l-145 -167c106 -23 173 -107 173 -207c0 -122 -86 -244 -265 -244c-160 0 -244 94 -244 94z" />
    <glyph glyph-name="four.tnum" horiz-adv-x="600" 
d="M13 173v106l276 436h214v-397h85v-145h-85v-173h-173v173h-317zM191 318h139v160c0 39 6 80 6 80h-2s-15 -44 -35 -74l-108 -164v-2z" />
    <glyph glyph-name="five.tnum" horiz-adv-x="600" 
d="M40 82l84 135s65 -64 145 -64c47 0 100 29 100 88c0 56 -49 89 -114 89c-55 0 -96 -24 -96 -24l-93 35l29 374h400v-150h-248l-4 -66c0 -14 -4 -28 -4 -28h2s25 7 52 7c170 0 256 -106 256 -235c0 -148 -109 -255 -265 -255c-158 0 -244 94 -244 94z" />
    <glyph glyph-name="six.tnum" horiz-adv-x="600" 
d="M325 -12c-144 0 -290 109 -290 342c0 194 119 397 341 397c100 0 158 -31 158 -31l-47 -150s-47 21 -98 21c-84 0 -132 -52 -154 -118h2c17 12 64 25 98 25c149 0 234 -122 234 -245c0 -121 -89 -241 -244 -241zM325 148c44 0 72 38 72 80c0 51 -31 105 -108 105
c-40 0 -74 -10 -74 -43c0 -85 60 -142 110 -142z" />
    <glyph glyph-name="seven.tnum" horiz-adv-x="600" 
d="M82 0l251 501c25 49 46 65 46 65v2s-10 -3 -46 -3h-282v150h513v-122l-300 -593h-182z" />
    <glyph glyph-name="eight.tnum" horiz-adv-x="600" 
d="M32 210c0 92 77 157 99 174c-38 33 -65 76 -65 137c0 104 73 206 240 206c133 0 242 -74 242 -207c0 -77 -63 -154 -70 -163c48 -33 84 -79 84 -151c0 -109 -88 -218 -265 -218c-174 0 -265 108 -265 222zM383 215c0 41 -64 65 -134 97c-17 -18 -38 -48 -38 -87
c0 -46 38 -83 86 -83c53 0 86 26 86 73zM237 517c0 -47 52 -71 115 -98c6 11 25 44 25 88c0 40 -28 66 -75 66c-45 0 -65 -25 -65 -56z" />
    <glyph glyph-name="nine.tnum" horiz-adv-x="600" 
d="M225 -12c-100 0 -158 31 -158 31l47 150s47 -21 98 -21c84 0 132 52 154 118h-2c-16 -13 -64 -25 -98 -25c-149 0 -234 122 -234 245c0 121 89 241 244 241c144 0 290 -109 290 -342c0 -194 -119 -397 -341 -397zM312 382c40 0 74 10 74 43c0 85 -60 142 -110 142
c-44 0 -72 -38 -72 -80c0 -51 31 -105 108 -105z" />
    <glyph glyph-name="hyphen.case" horiz-adv-x="484" 
d="M85 272v150h314v-150h-314z" />
    <glyph glyph-name="parenleft.case" horiz-adv-x="374" 
d="M343 -65h-142c-77 122 -124 274 -124 442c0 144 45 281 124 403h142c-74 -124 -113 -263 -113 -403c0 -150 39 -301 113 -442z" />
    <glyph glyph-name="parenright.case" horiz-adv-x="374" 
d="M173 -65h-142c74 141 113 292 113 442c0 140 -39 279 -113 403h142c79 -122 124 -259 124 -403c0 -168 -47 -320 -124 -442z" />
    <glyph glyph-name="bracketleft.case" horiz-adv-x="408" 
d="M103 -65v845h246v-120h-102v-605h102v-120h-246z" />
    <glyph glyph-name="bracketright.case" horiz-adv-x="408" 
d="M305 780v-845h-246v120h102v605h-102v120h246z" />
    <glyph glyph-name="braceleft.case" horiz-adv-x="446" 
d="M144 92v98c0 96 -85 96 -85 96v150s85 0 85 99v88c0 143 129 162 199 162c25 0 43 -2 43 -2v-124s-11 2 -25 2c-29 0 -73 -8 -73 -54v-117c0 -102 -84 -127 -84 -127v-2s84 -21 84 -126v-127c0 -46 44 -54 73 -54c14 0 25 2 25 2v-124s-18 -2 -43 -2
c-70 0 -199 19 -199 162z" />
    <glyph glyph-name="braceright.case" horiz-adv-x="446" 
d="M60 56c0 0 11 -2 25 -2c29 0 73 8 73 54v127c0 105 84 126 84 126v2s-84 25 -84 127v117c0 46 -44 54 -73 54c-14 0 -25 -2 -25 -2v124s18 2 43 2c70 0 199 -19 199 -162v-88c0 -99 85 -99 85 -99v-150s-85 0 -85 -96v-98c0 -143 -129 -162 -199 -162c-25 0 -43 2 -43 2
v124z" />
    <glyph glyph-name="at.case" horiz-adv-x="878" 
d="M59 355c0 211 168 376 393 376c221 0 298 -110 298 -240v-198h74v-119h-283c-150 0 -227 91 -227 182c0 88 74 176 227 176h49c0 43 -73 64 -135 64c-130 0 -227 -120 -227 -241c0 -127 88 -239 252 -239v-130c-262 0 -421 163 -421 369zM485 360c0 -37 22 -67 66 -67h39
v134h-37c-46 0 -68 -31 -68 -67z" />
    <glyph glyph-name="guillemotleft.case" horiz-adv-x="683" 
d="M308 342l164 206h158l-164 -206l164 -205h-158zM212 137l-164 205l164 206h158l-164 -206l164 -205h-158z" />
    <glyph glyph-name="guillemotright.case" horiz-adv-x="683" 
d="M313 137l164 205l-164 206h158l164 -206l-164 -205h-158zM53 137l164 205l-164 206h158l164 -206l-164 -205h-158z" />
    <glyph glyph-name="guilsinglleft.case" horiz-adv-x="423" 
d="M212 137l-164 205l164 206h158l-164 -206l164 -205h-158z" />
    <glyph glyph-name="guilsinglright.case" horiz-adv-x="423" 
d="M53 137l164 205l-164 206h158l164 -206l-164 -205h-158z" />
    <glyph glyph-name="endash.case" horiz-adv-x="766" 
d="M85 282v130h596v-130h-596z" />
    <glyph glyph-name="emdash.case" horiz-adv-x="966" 
d="M85 282v130h796v-130h-796z" />
    <glyph glyph-name="periodcentered.case" horiz-adv-x="328" 
d="M85 263v164h158v-164h-158z" />
    <glyph glyph-name="questiondown.case" horiz-adv-x="544" 
d="M232 565v150h158v-150h-158zM57 184c0 164 171 188 171 277v33h166v-47c0 -135 -157 -159 -157 -243c0 -34 33 -59 71 -59c48 0 95 43 95 43l96 -117s-75 -83 -209 -83c-112 0 -233 67 -233 196z" />
    <glyph glyph-name="exclamdown.case" horiz-adv-x="386" 
d="M114 565v150h158v-150h-158zM103 0l16 494h148l16 -494h-180z" />
    <glyph glyph-name="bullet.case" horiz-adv-x="506" 
d="M253 170c-103 0 -186 83 -186 186s83 186 186 186s186 -83 186 -186s-83 -186 -186 -186z" />
    <glyph glyph-name="zero.p_osf" horiz-adv-x="591" 
d="M40 278c0 144 73 289 256 289s255 -146 255 -291c0 -147 -72 -288 -255 -288s-256 145 -256 290zM296 132c65 0 82 72 82 144c0 73 -18 147 -82 147c-65 0 -82 -73 -82 -145c0 -73 17 -146 82 -146z" />
    <glyph glyph-name="one.p_osf" horiz-adv-x="527" 
d="M58 0v145h143v162c0 27 1 74 1 74h-2s-15 -18 -38 -32l-55 -31l-79 118l193 119h147v-410h134v-145h-444z" />
    <glyph glyph-name="two.p_osf" horiz-adv-x="559" 
d="M49 0v115c80 48 269 166 269 247c0 42 -36 57 -66 57c-69 0 -134 -70 -134 -70l-88 111s88 107 246 107c100 0 217 -52 217 -181c0 -122 -108 -197 -197 -244v-2s23 5 68 5h155v-145h-470z" />
    <glyph glyph-name="three.p_osf" horiz-adv-x="545" 
d="M8 -41l75 121s68 -64 147 -64c66 0 103 30 103 72c0 63 -74 85 -128 85h-59l-37 79l79 97c33 40 62 62 62 63v1s-23 -4 -68 -4h-138v146h431v-98l-149 -166c103 -18 181 -94 181 -190c0 -119 -90 -229 -269 -229c-151 0 -230 87 -230 87z" />
    <glyph glyph-name="four.p_osf" horiz-adv-x="620" 
d="M22 23v106l257 426h223v-387h85v-145h-85v-139h-173v139h-307zM200 168h129v156c0 39 6 80 6 80h-2s-16 -43 -35 -74z" />
    <glyph glyph-name="five.p_osf" horiz-adv-x="552" 
d="M21 -42l73 122s65 -64 146 -64c49 0 107 26 107 84c0 59 -50 93 -112 93c-58 0 -101 -22 -101 -22l-88 33l29 351h385v-146h-238l-4 -64c-1 -15 -4 -27 -4 -27h2s25 7 52 7c167 0 253 -101 253 -216c0 -144 -111 -237 -267 -237c-149 0 -233 86 -233 86z" />
    <glyph glyph-name="six.p_osf" horiz-adv-x="597" 
d="M45 305c0 184 111 378 330 378c100 0 158 -29 158 -29l-47 -135s-47 20 -98 20c-79 0 -129 -58 -150 -117h2c17 11 65 23 99 23c146 0 229 -112 229 -228c0 -113 -87 -229 -239 -229c-144 0 -284 95 -284 317zM221 272c0 -77 48 -140 108 -140c41 0 67 34 67 82
s-30 98 -103 98c-38 0 -72 -9 -72 -40z" />
    <glyph glyph-name="seven.p_osf" horiz-adv-x="549" 
d="M60 -116l238 466c24 47 38 61 38 61v2s-5 -3 -41 -3h-269v145h502v-115l-287 -556h-181z" />
    <glyph glyph-name="eight.p_osf" horiz-adv-x="599" 
d="M39 197c0 78 65 140 95 164c-37 31 -63 71 -63 127c0 98 72 194 232 194c128 0 236 -70 236 -195c0 -73 -55 -148 -61 -156c46 -31 79 -73 79 -138c0 -102 -87 -205 -260 -205c-168 0 -258 102 -258 209zM383 201c0 39 -62 61 -131 92c-18 -17 -42 -46 -42 -82
c0 -43 38 -80 87 -80c53 0 86 26 86 70zM236 485c0 -44 52 -68 114 -93c7 12 24 44 24 83c0 38 -28 64 -73 64s-65 -25 -65 -54z" />
    <glyph glyph-name="nine.p_osf" horiz-adv-x="598" 
d="M111 36c0 0 47 -20 98 -20c79 0 129 58 150 117h-2c-17 -11 -65 -23 -99 -23c-146 0 -229 112 -229 228c0 113 87 229 239 229c144 0 284 -95 284 -317c0 -184 -111 -378 -330 -378c-100 0 -158 29 -158 29zM304 243c38 0 72 9 72 40c0 77 -48 140 -108 140
c-41 0 -67 -34 -67 -82s30 -98 103 -98z" />
    <glyph glyph-name="zero.t_osf" horiz-adv-x="600" 
d="M45 278c0 144 73 289 256 289s255 -146 255 -291c0 -147 -72 -288 -255 -288s-256 145 -256 290zM301 132c65 0 82 72 82 144c0 73 -18 147 -82 147c-65 0 -82 -73 -82 -145c0 -73 17 -146 82 -146z" />
    <glyph glyph-name="one.t_osf" horiz-adv-x="600" 
d="M99 0v145h143v162c0 27 1 74 1 74h-2s-15 -18 -38 -32l-55 -31l-79 118l193 119h147v-410h134v-145h-444z" />
    <glyph glyph-name="two.t_osf" horiz-adv-x="600" 
d="M72 0v115c80 48 269 166 269 247c0 42 -36 57 -66 57c-69 0 -134 -70 -134 -70l-88 111s88 107 246 107c100 0 217 -52 217 -181c0 -122 -108 -197 -197 -244v-2s23 5 68 5h155v-145h-470z" />
    <glyph glyph-name="three.t_osf" horiz-adv-x="600" 
d="M46 -39l75 121s67 -64 146 -64c66 0 103 30 103 72c0 62 -74 84 -128 84h-59l-36 79l78 97c33 39 62 61 62 62v1s-23 -4 -68 -4h-137v146h429v-98l-148 -165c102 -18 180 -94 180 -189c0 -119 -90 -228 -268 -228c-150 0 -229 86 -229 86z" />
    <glyph glyph-name="four.t_osf" horiz-adv-x="600" 
d="M19 23v106l257 426h223v-387h85v-145h-85v-139h-173v139h-307zM197 168h129v156c0 39 6 80 6 80h-2s-16 -43 -35 -74z" />
    <glyph glyph-name="five.t_osf" horiz-adv-x="600" 
d="M49 -42l73 122s65 -64 146 -64c49 0 107 26 107 84c0 59 -50 93 -112 93c-58 0 -101 -22 -101 -22l-88 33l29 351h385v-146h-238l-4 -64c-1 -15 -4 -27 -4 -27h2s25 7 52 7c167 0 253 -101 253 -216c0 -144 -111 -237 -267 -237c-149 0 -233 86 -233 86z" />
    <glyph glyph-name="six.t_osf" horiz-adv-x="600" 
d="M39 305c0 184 111 378 330 378c100 0 158 -29 158 -29l-47 -135s-47 20 -98 20c-79 0 -129 -58 -150 -117h2c17 11 65 23 99 23c146 0 229 -112 229 -228c0 -113 -87 -229 -239 -229c-144 0 -284 95 -284 317zM215 272c0 -77 48 -140 108 -140c41 0 67 34 67 82
s-30 98 -103 98c-38 0 -72 -9 -72 -40z" />
    <glyph glyph-name="seven.t_osf" horiz-adv-x="600" 
d="M83 -116l238 466c24 47 38 61 38 61v2s-5 -3 -41 -3h-269v145h502v-115l-287 -556h-181z" />
    <glyph glyph-name="eight.t_osf" horiz-adv-x="600" 
d="M39 197c0 78 65 140 95 164c-37 31 -63 71 -63 127c0 98 72 194 232 194c128 0 236 -70 236 -195c0 -73 -55 -148 -61 -156c46 -31 79 -73 79 -138c0 -102 -87 -205 -260 -205c-168 0 -258 102 -258 209zM383 201c0 39 -62 61 -131 92c-18 -17 -42 -46 -42 -82
c0 -43 38 -80 87 -80c53 0 86 26 86 70zM236 485c0 -44 52 -68 114 -93c7 12 24 44 24 83c0 38 -28 64 -73 64s-65 -25 -65 -54z" />
    <glyph glyph-name="nine.t_osf" horiz-adv-x="600" 
d="M120 36c0 0 47 -20 98 -20c79 0 129 58 150 117h-2c-17 -11 -65 -23 -99 -23c-146 0 -229 112 -229 228c0 113 87 229 239 229c144 0 284 -95 284 -317c0 -184 -111 -378 -330 -378c-100 0 -158 29 -158 29zM313 243c38 0 72 9 72 40c0 77 -48 140 -108 140
c-41 0 -67 -34 -67 -82s30 -98 103 -98z" />
    <glyph glyph-name="dollar.osf" horiz-adv-x="549" 
d="M38 83l78 129s71 -72 146 -72c45 0 67 13 67 34c0 54 -276 64 -276 246c0 90 72 152 173 171v93h109v-90c106 -12 161 -64 161 -64l-61 -138s-61 53 -133 53c-42 0 -69 -8 -69 -36c0 -49 276 -52 276 -237c0 -84 -64 -158 -174 -178v-94h-109v91c-119 16 -188 92 -188 92
z" />
    <glyph glyph-name="cent.osf" horiz-adv-x="555" 
d="M38 300c0 111 69 215 197 246v83h114v-76c106 -13 167 -78 167 -78l-78 -124s-48 52 -108 52c-84 0 -120 -54 -120 -101c0 -51 36 -105 120 -105c60 0 108 52 108 52l78 -124s-62 -66 -167 -78v-77h-114v84c-128 30 -197 134 -197 246z" />
    <glyph glyph-name="sterling.osf" horiz-adv-x="627" 
d="M49 0v145h55v86h-43v108h43v42c0 128 113 216 254 216c118 0 196 -60 196 -60l-73 -126s-60 34 -118 34c-42 0 -84 -25 -84 -64v-42h180v-108h-180v-86h289v-145h-519z" />
    <glyph glyph-name="yen.osf" horiz-adv-x="674" 
d="M85 292v96h65l-112 197h199l53 -118c22 -49 43 -110 43 -110h2s21 61 43 110l53 118h199l-113 -197h74v-96h-129l-34 -59h163v-96h-170v-137h-175v137h-161v96h154l-34 59h-120z" />
    <glyph glyph-name="florin.osf" horiz-adv-x="589" 
d="M23 27c0 0 54 -7 70 -7c33 0 88 9 93 64l16 182h-64v135h75l9 90c16 169 166 192 251 192c31 0 88 -8 88 -8v-146s-60 7 -76 7c-34 0 -89 -9 -94 -64l-7 -71h96v-135h-108l-17 -201c-15 -169 -167 -192 -250 -192c-31 0 -82 8 -82 8v146z" />
    <glyph glyph-name="Euro.osf" horiz-adv-x="586" 
d="M44 184v86h64c-1 8 -1 30 -1 45h-63v86h79c39 108 142 196 310 196c59 0 103 -12 103 -12l-37 -135s-32 9 -70 9c-56 0 -98 -24 -123 -58h184l-19 -86h-190c-2 -13 0 -35 2 -45h182l-16 -86h-132c26 -33 67 -55 119 -55c47 0 87 14 87 14l25 -137s-49 -18 -115 -18
c-164 0 -267 87 -308 196h-81z" />
    <glyph glyph-name="zero.numerator" 
d="M203 264c-129 0 -170 103 -170 231c0 129 41 230 170 230s170 -101 170 -230c0 -128 -41 -231 -170 -231zM203 379c34 0 43 52 43 116c0 63 -9 114 -43 114c-33 0 -43 -51 -43 -114c0 -64 10 -116 43 -116z" />
    <glyph glyph-name="one.numerator" 
d="M56 274v108h89v143c0 19 3 32 3 32h-2s-5 -10 -11 -15l-24 -22l-72 79l124 116h108v-333h90v-108h-305z" />
    <glyph glyph-name="two.numerator" 
d="M44 274c-3 17 -5 34 -5 49c0 179 199 186 199 253c0 23 -22 34 -45 34c-39 0 -71 -45 -71 -45l-83 71s50 89 163 89c76 0 163 -43 163 -143c0 -139 -175 -158 -185 -200h191v-108h-327z" />
    <glyph glyph-name="three.numerator" 
d="M191 264c-108 0 -160 68 -160 68l61 90s34 -43 91 -43c34 0 54 18 54 42c0 25 -29 36 -62 36h-37l-24 57l62 69c7 9 24 23 24 23v2s-21 -2 -34 -2h-110v109h294v-79l-83 -91c68 -17 97 -66 97 -126c0 -77 -59 -155 -173 -155z" />
    <glyph glyph-name="four.numerator" 
d="M215 274v87h-197v84l171 270h150v-247h53v-107h-53v-87h-124zM137 468h78v90c0 25 4 50 4 50h-2s-9 -27 -21 -46l-59 -92v-2z" />
    <glyph glyph-name="five.numerator" 
d="M193 264c-104 0 -163 65 -163 65l63 93s34 -43 90 -43c27 0 57 16 57 46s-27 47 -61 47c-39 0 -65 -13 -65 -13l-65 24l20 232h266v-109h-164l-2 -23c-1 -11 -3 -16 -3 -16l2 -1s17 4 43 4c95 0 156 -67 156 -146s-59 -160 -174 -160z" />
    <glyph glyph-name="six.numerator" 
d="M218 264c-91 0 -183 65 -183 209c0 122 74 252 213 252c63 0 106 -24 106 -24l-32 -108s-37 16 -66 16c-34 0 -63 -15 -76 -52h2c12 4 25 6 37 6c102 0 157 -67 157 -146c0 -77 -57 -153 -158 -153zM218 379c21 0 33 19 33 39c0 26 -15 58 -54 58c-19 0 -34 -7 -34 -19
c0 -48 27 -78 55 -78z" />
    <glyph glyph-name="seven.numerator" 
d="M42 274l176 308c11 19 16 24 16 24v2s-17 -2 -30 -2h-161v109h334v-85l-198 -356h-137z" />
    <glyph glyph-name="eight.numerator" 
d="M28 403c0 49 41 88 64 106c-25 21 -43 48 -43 88c0 86 76 128 155 128c78 0 159 -44 159 -129c0 -44 -39 -89 -49 -100c33 -21 59 -51 59 -99c0 -88 -85 -133 -170 -133c-87 0 -175 46 -175 139zM247 404c0 26 -35 41 -76 60c-10 -12 -22 -32 -22 -53
c0 -27 26 -41 53 -41c22 0 45 11 45 34zM169 591c0 -26 27 -41 61 -56c5 8 17 29 17 53c0 20 -23 31 -43 31c-19 0 -35 -8 -35 -28z" />
    <glyph glyph-name="nine.numerator" 
d="M29 573c0 77 57 152 158 152c91 0 183 -65 183 -209c0 -122 -74 -252 -213 -252c-63 0 -106 24 -106 24l32 108s37 -16 66 -16c34 0 63 15 76 52h-2c-12 -4 -25 -6 -37 -6c-102 0 -157 68 -157 147zM154 572c0 -26 15 -59 54 -59c19 0 34 7 34 19c0 48 -27 78 -55 78
c-21 0 -33 -18 -33 -38z" />
    <glyph glyph-name="zerosuperior" unicode="&#x2070;" 
d="M203 413c-129 0 -170 103 -170 231c0 129 41 230 170 230s170 -101 170 -230c0 -128 -41 -231 -170 -231zM203 528c34 0 43 52 43 116c0 63 -9 114 -43 114c-33 0 -43 -51 -43 -114c0 -64 10 -116 43 -116z" />
    <glyph glyph-name="foursuperior" unicode="&#x2074;" 
d="M214 423v87h-197v84l171 270h150v-247h53v-107h-53v-87h-124zM136 617h78v90c0 25 4 50 4 50h-2s-9 -27 -21 -46l-59 -92v-2z" />
    <glyph glyph-name="fivesuperior" unicode="&#x2075;" 
d="M198 413c-104 0 -163 65 -163 65l63 93s34 -43 90 -43c27 0 57 16 57 46s-27 47 -61 47c-39 0 -65 -13 -65 -13l-65 24l20 232h266v-109h-164l-2 -23c-1 -11 -3 -16 -3 -16l2 -1s17 4 43 4c95 0 156 -67 156 -146s-59 -160 -174 -160z" />
    <glyph glyph-name="sixsuperior" unicode="&#x2076;" 
d="M218 413c-91 0 -183 65 -183 209c0 122 74 252 213 252c63 0 106 -24 106 -24l-32 -108s-37 16 -66 16c-34 0 -63 -15 -76 -52h2c12 4 25 6 37 6c102 0 157 -67 157 -146c0 -77 -57 -153 -158 -153zM218 528c21 0 33 19 33 39c0 26 -15 58 -54 58c-19 0 -34 -7 -34 -19
c0 -48 27 -78 55 -78z" />
    <glyph glyph-name="sevensuperior" unicode="&#x2077;" 
d="M40 423l176 308c11 19 16 24 16 24v2s-17 -2 -30 -2h-161v109h334v-85l-198 -356h-137z" />
    <glyph glyph-name="eightsuperior" unicode="&#x2078;" 
d="M28 552c0 49 41 88 64 106c-25 21 -43 48 -43 88c0 86 76 128 155 128c78 0 159 -44 159 -129c0 -44 -39 -89 -49 -100c33 -21 59 -51 59 -99c0 -88 -85 -133 -170 -133c-87 0 -175 46 -175 139zM247 553c0 26 -35 41 -76 60c-10 -12 -22 -32 -22 -53
c0 -27 26 -41 53 -41c22 0 45 11 45 34zM169 740c0 -26 27 -41 61 -56c5 8 17 29 17 53c0 20 -23 31 -43 31c-19 0 -35 -8 -35 -28z" />
    <glyph glyph-name="ninesuperior" unicode="&#x2079;" 
d="M30 722c0 77 57 152 158 152c91 0 183 -65 183 -209c0 -122 -74 -252 -213 -252c-63 0 -106 24 -106 24l32 108s37 -16 66 -16c34 0 63 15 76 52h-2c-12 -4 -25 -6 -37 -6c-102 0 -157 68 -157 147zM155 721c0 -26 15 -59 54 -59c19 0 34 7 34 19c0 48 -27 78 -55 78
c-21 0 -33 -18 -33 -38z" />
    <glyph glyph-name="zeroinferior" unicode="&#x2080;" 
d="M203 -167c-129 0 -170 103 -170 231c0 129 41 230 170 230s170 -101 170 -230c0 -128 -41 -231 -170 -231zM203 -52c34 0 43 52 43 116c0 63 -9 114 -43 114c-33 0 -43 -51 -43 -114c0 -64 10 -116 43 -116z" />
    <glyph glyph-name="oneinferior" unicode="&#x2081;" 
d="M62 -157v108h89v143c0 19 3 32 3 32h-2s-5 -10 -11 -15l-24 -22l-72 79l124 116h108v-333h90v-108h-305z" />
    <glyph glyph-name="twoinferior" unicode="&#x2082;" 
d="M44 -157c-3 17 -5 34 -5 49c0 179 199 186 199 253c0 23 -22 34 -45 34c-39 0 -71 -45 -71 -45l-83 71s50 89 163 89c76 0 163 -43 163 -143c0 -139 -175 -158 -185 -200h191v-108h-327z" />
    <glyph glyph-name="threeinferior" unicode="&#x2083;" 
d="M191 -167c-108 0 -160 68 -160 68l61 90s34 -43 91 -43c34 0 54 18 54 42c0 25 -29 36 -62 36h-37l-24 57l62 69c7 9 24 23 24 23v2s-21 -2 -34 -2h-110v109h294v-79l-83 -91c68 -17 97 -66 97 -126c0 -77 -59 -155 -173 -155z" />
    <glyph glyph-name="fourinferior" unicode="&#x2084;" 
d="M212 -157v87h-197v84l171 270h150v-247h53v-107h-53v-87h-124zM134 37h78v90c0 25 4 50 4 50h-2s-9 -27 -21 -46l-59 -92v-2z" />
    <glyph glyph-name="fiveinferior" unicode="&#x2085;" 
d="M199 -167c-104 0 -163 65 -163 65l63 93s34 -43 90 -43c27 0 57 16 57 46s-27 47 -61 47c-39 0 -65 -13 -65 -13l-65 24l20 232h266v-109h-164l-2 -23c-1 -11 -3 -16 -3 -16l2 -1s17 4 43 4c95 0 156 -67 156 -146s-59 -160 -174 -160z" />
    <glyph glyph-name="sixinferior" unicode="&#x2086;" 
d="M218 -167c-91 0 -183 65 -183 209c0 122 74 252 213 252c63 0 106 -24 106 -24l-32 -108s-37 16 -66 16c-34 0 -63 -15 -76 -52h2c12 4 25 6 37 6c102 0 157 -67 157 -146c0 -77 -57 -153 -158 -153zM218 -52c21 0 33 19 33 39c0 26 -15 58 -54 58c-19 0 -34 -7 -34 -19
c0 -48 27 -78 55 -78z" />
    <glyph glyph-name="seveninferior" unicode="&#x2087;" 
d="M35 -157l176 308c11 19 16 24 16 24v2s-17 -2 -30 -2h-161v109h334v-85l-198 -356h-137z" />
    <glyph glyph-name="eightinferior" unicode="&#x2088;" 
d="M28 -28c0 49 41 88 64 106c-25 21 -43 48 -43 88c0 86 76 128 155 128c78 0 159 -44 159 -129c0 -44 -39 -89 -49 -100c33 -21 59 -51 59 -99c0 -88 -85 -133 -170 -133c-87 0 -175 46 -175 139zM247 -27c0 26 -35 41 -76 60c-10 -12 -22 -32 -22 -53
c0 -27 26 -41 53 -41c22 0 45 11 45 34zM169 160c0 -26 27 -41 61 -56c5 8 17 29 17 53c0 20 -23 31 -43 31c-19 0 -35 -8 -35 -28z" />
    <glyph glyph-name="nineinferior" unicode="&#x2089;" 
d="M29 142c0 77 57 152 158 152c91 0 183 -65 183 -209c0 -122 -74 -252 -213 -252c-63 0 -106 24 -106 24l32 108s37 -16 66 -16c34 0 63 15 76 52h-2c-12 -4 -25 -6 -37 -6c-102 0 -157 68 -157 147zM154 141c0 -26 15 -59 54 -59c19 0 34 7 34 19c0 48 -27 78 -55 78
c-21 0 -33 -18 -33 -38z" />
    <glyph glyph-name="zero.denominator" 
d="M203 -10c-129 0 -170 103 -170 231c0 129 41 230 170 230s170 -101 170 -230c0 -128 -41 -231 -170 -231zM203 105c34 0 43 52 43 116c0 63 -9 114 -43 114c-33 0 -43 -51 -43 -114c0 -64 10 -116 43 -116z" />
    <glyph glyph-name="one.denominator" 
d="M62 0v108h89v143c0 19 3 32 3 32h-2s-5 -10 -11 -15l-24 -22l-72 79l124 116h108v-333h90v-108h-305z" />
    <glyph glyph-name="two.denominator" 
d="M44 0c-3 17 -5 34 -5 49c0 179 199 186 199 253c0 23 -22 34 -45 34c-39 0 -71 -45 -71 -45l-83 71s50 89 163 89c76 0 163 -43 163 -143c0 -139 -175 -158 -185 -200h191v-108h-327z" />
    <glyph glyph-name="three.denominator" 
d="M191 -10c-108 0 -160 68 -160 68l61 90s34 -43 91 -43c34 0 54 18 54 42c0 25 -29 36 -62 36h-37l-24 57l62 69c7 9 24 23 24 23v2s-21 -2 -34 -2h-110v109h294v-79l-83 -91c68 -17 97 -66 97 -126c0 -77 -59 -155 -173 -155z" />
    <glyph glyph-name="four.denominator" 
d="M205 0v87h-197v84l171 270h150v-247h53v-107h-53v-87h-124zM127 194h78v90c0 25 4 50 4 50h-2s-9 -27 -21 -46l-59 -92v-2z" />
    <glyph glyph-name="five.denominator" 
d="M199 -10c-104 0 -163 65 -163 65l63 93s34 -43 90 -43c27 0 57 16 57 46s-27 47 -61 47c-39 0 -65 -13 -65 -13l-65 24l20 232h266v-109h-164l-2 -23c-1 -11 -3 -16 -3 -16l2 -1s17 4 43 4c95 0 156 -67 156 -146s-59 -160 -174 -160z" />
    <glyph glyph-name="six.denominator" 
d="M218 -10c-91 0 -183 65 -183 209c0 122 74 252 213 252c63 0 106 -24 106 -24l-32 -108s-37 16 -66 16c-34 0 -63 -15 -76 -52h2c12 4 25 6 37 6c102 0 157 -67 157 -146c0 -77 -57 -153 -158 -153zM218 105c21 0 33 19 33 39c0 26 -15 58 -54 58c-19 0 -34 -7 -34 -19
c0 -48 27 -78 55 -78z" />
    <glyph glyph-name="seven.denominator" 
d="M15 0l176 308c11 19 16 24 16 24v2s-17 -2 -30 -2h-161v109h334v-85l-198 -356h-137z" />
    <glyph glyph-name="eight.denominator" 
d="M28 129c0 49 41 88 64 106c-25 21 -43 48 -43 88c0 86 76 128 155 128c78 0 159 -44 159 -129c0 -44 -39 -89 -49 -100c33 -21 59 -51 59 -99c0 -88 -85 -133 -170 -133c-87 0 -175 46 -175 139zM247 130c0 26 -35 41 -76 60c-10 -12 -22 -32 -22 -53
c0 -27 26 -41 53 -41c22 0 45 11 45 34zM169 317c0 -26 27 -41 61 -56c5 8 17 29 17 53c0 20 -23 31 -43 31c-19 0 -35 -8 -35 -28z" />
    <glyph glyph-name="nine.denominator" 
d="M29 299c0 77 57 152 158 152c91 0 183 -65 183 -209c0 -122 -74 -252 -213 -252c-63 0 -106 24 -106 24l32 108s37 -16 66 -16c34 0 63 15 76 52h-2c-12 -4 -25 -6 -37 -6c-102 0 -157 68 -157 147zM154 298c0 -26 15 -59 54 -59c19 0 34 7 34 19c0 48 -27 78 -55 78
c-21 0 -33 -18 -33 -38z" />
    <glyph glyph-name="thinspace" unicode="&#x2009;" horiz-adv-x="20" 
 />
    <glyph glyph-name="uni00AD" unicode="&#xad;" horiz-adv-x="430" 
d="M58 212v150h314v-150h-314z" />
    <glyph glyph-name="uni00A0" unicode="&#xa0;" horiz-adv-x="229" 
 />
    </font>
</defs>
</svg>
